\m/ 80's metal \m/

Информационно-аналитический форум "80 см пыли" (In Search We Trust) "У нас никто никуда не спешит"
Me For You - http://me-4u.com
It is currently 28 Nov 2021

All times are UTC + 3 hours

Spoiler
Chat - temporary registration for foreign users (please leave your application here)







Post new topic Reply to topic  [ 12 posts ] 
Author Message
 
PostPosted: 09 Mar 2015 
Генеральный thrasher
User avatar
Joined: 03 Oct 2008
Posts: 3751
Lоcаtion: Ханты-Мансийский АО
Age: 46
Name: Сергей
Единственный диск немецких трэшеров.Приобрёл по случаю.Достаточно редкий диск и очень неплохая работа.

Image

Year:1995
Style:Thrash Metal
Country:Germany
Audio:Flac+Cue+Log+Scans
Size:367Mb
Source:my CD
Label:Blue Merle

Line-Up:
Franz Potreck - vocals
Jan Potreck - guitars
Michael Hamann - guitars
Henning Rohweder - drums
Sven Löbl - bass

Tracklist:
01. Cosmicon 01:29
02. Whip Of Live 04:51
03. One Minute In My Head 04:01
04. Renew Resistance 07:03
05. Brutal Indifference 06:24
06. Are You God? 05:07
07. Minority Games 05:01
08. Sorrow 04:48
09. State Of Anguish 06:58
"Cue"
REM GENRE "Thrash Metal"
REM DATE 1995
REM DISCID 630ABD09
REM COMMENT "ExactAudioCopy v0.99pb5"
PERFORMER "Cosmic Haze"
TITLE "Cosmic Haze"
FILE "Cosmic Haze - Cosmic Haze.flac" WAVE
TRACK 01 AUDIO
TITLE "Cosmicon"
PERFORMER "Cosmic Haze"
INDEX 01 00:00:00
TRACK 02 AUDIO
TITLE "Whip Of Live"
PERFORMER "Cosmic Haze"
INDEX 01 01:29:16
TRACK 03 AUDIO
TITLE "One Minute in My Head"
PERFORMER "Cosmic Haze"
INDEX 01 06:20:56
TRACK 04 AUDIO
TITLE "Renew Resistance"
PERFORMER "Cosmic Haze"
INDEX 00 10:21:71
INDEX 01 10:22:10
TRACK 05 AUDIO
TITLE "Brutal Indifference"
PERFORMER "Cosmic Haze"
INDEX 01 17:25:46
TRACK 06 AUDIO
TITLE "Are You God?"
PERFORMER "Cosmic Haze"
INDEX 01 23:50:37
TRACK 07 AUDIO
TITLE "Minority Games"
PERFORMER "Cosmic Haze"
INDEX 00 28:57:68
INDEX 01 28:57:72
TRACK 08 AUDIO
TITLE "Sorrow"
PERFORMER "Cosmic Haze"
INDEX 00 33:59:45
INDEX 01 34:02:24
TRACK 09 AUDIO
TITLE "State Of Anguish"
PERFORMER "Cosmic Haze"
INDEX 01 38:50:63

"Log"
Exact Audio Copy V0.99 prebeta 5 from 4. May 2009

Отчёт EAC об извлечении, выполненном 6. марта 2015, 12:59

Cosmic Haze / Cosmic Haze

Дисковод: MATSHITADVD-RAM UJ8A0AS Adapter: 0 ID: 1

Режим чтения : Достоверность
Использование точного потока : Да
Отключение кэша аудио : Да
Использование указателей C2 : Нет

Коррекция смещения при чтении : 102
Способность читать области Lead-in и Lead-out : Нет
Заполнение пропущенных сэмплов тишиной : Да
Удаление блоков с тишиной в начале и конце : Нет
При вычислениях CRC использовались нулевые сэмплы : Да
Интерфейс : Встроенный Win32-интерфейс для Win NT/2000

Выходной формат : Пользовательский кодировщик
Выбранный битрейт : 1024 kBit/s
Качество : Высокий
Добавление ID3-тэга : Нет
Утилита сжатия : C:\Program Files\Exact Audio Copy\FLAC\FLAC.EXE
Дополнительные параметры : -6 -V -T "ARTIST=%a" -T "TITLE=%t" -T "ALBUM=%g" -T "DATE=%y" -T "TRACKNUMBER=%n" -T "GENRE=%m" -T "COMMENT=%e" %s -o %d


TOC извлечённого CD

Трек | Старт | Длительность | Начальный сектор | Конечный сектор
---------------------------------------------------------------------
1 | 0:00.00 | 1:29.16 | 0 | 6690
2 | 1:29.16 | 4:51.40 | 6691 | 28555
3 | 6:20.56 | 4:01.29 | 28556 | 46659
4 | 10:22.10 | 7:03.36 | 46660 | 78420
5 | 17:25.46 | 6:24.66 | 78421 | 107286
6 | 23:50.37 | 5:07.35 | 107287 | 130346
7 | 28:57.72 | 5:04.27 | 130347 | 153173
8 | 34:02.24 | 4:48.39 | 153174 | 174812
9 | 38:50.63 | 6:58.50 | 174813 | 206212


Характеристики диапазона извлечения и сообщения об ошибках

Выбранный диапазон

Имя файла C:\Users\эксперт\Music\Cosmic Haze - Cosmic Haze.wav

Пиковый уровень 98.8 %
Качество диапазона 99.9 %
CRC копии A9DEEDCD
Копирование... OK

Ошибок не произошло


AccurateRip: сводка

Трек 1 нет в базе данных
Трек 2 нет в базе данных
Трек 3 нет в базе данных
Трек 4 нет в базе данных
Трек 5 нет в базе данных
Трек 6 нет в базе данных
Трек 7 нет в базе данных
Трек 8 нет в базе данных
Трек 9 нет в базе данных

Ни одного трека нет в базе AccurateRip

Конец отчёта


Cosmic Haze


Top
 Profile  
 
 
PostPosted: 09 Mar 2015 
Я набрал 1000 сообщений!
User avatar
Joined: 02 Feb 2009
Posts: 1000
Lоcаtion: из Тулы
Age: 47
Name: Максим
:thanx: :true:

_________________
КМА


Top
 Profile  
 
 
PostPosted: 09 Mar 2015 
Персональный статус
User avatar
Joined: 04 Mar 2012
Posts: 239
Lоcаtion: Саратов
Name: Василий
:thanx:


Top
 Profile E-mail  
 
 
PostPosted: 10 Mar 2015 
Прокъмитолист
User avatar
Joined: 12 Aug 2007
Posts: 6878
Lоcаtion: Санктъ-Петербуркъ
Age: 54
Name: Олекъ
:thanx:

_________________
прокъметол - это музыко, от которово есть прок (ы)


Top
 Profile  
 
 
PostPosted: 18 Mar 2015 
Alive Again
User avatar
Joined: 17 Dec 2008
Posts: 4750
Lоcаtion: Курск Воронеж Оскол
Age: 47
Name: Дмитрий
:thanx:


Top
 Profile E-mail  
 
 
PostPosted: 18 Mar 2015 
Я набрал 1000 сообщений!
User avatar
Joined: 28 Jul 2008
Posts: 1054
Lоcаtion: Украина---Днепропетровск
Age: 47
Name: Александр
:thanx: :true:

_________________
Музыка в которой я растворяюсь многих угнетает......


Top
 Profile  
 
 
PostPosted: 08 May 2015 
ТрэшЭрос
User avatar
Joined: 18 Jul 2011
Posts: 2307
Lоcаtion: Гулькевичи
Age: 46
Name: Александр
:thanx:
Не слышал таких - забираю и :true:

_________________
Thrash no trash!!!


Top
 Profile E-mail  
 
 
PostPosted: 08 May 2015 
Хиппей (support team)
User avatar
Joined: 30 Jul 2007
Posts: 123139
Lоcаtion: Киев (Kyiv, UA)
Age: 48
Name: Andrey
:thanx:

mirror: iFolder l Narod l M-Cloud

_________________


Top
 Profile E-mail  
 
 
PostPosted: 08 May 2015 
Хиппей (support team)
User avatar
Joined: 30 Jul 2007
Posts: 123139
Lоcаtion: Киев (Kyiv, UA)
Age: 48
Name: Andrey
thorbeorn wrote:
06. Are You God? 05:07

Очень песня наполнила по исполнению группу Sodom.
Или это кавер на них?

_________________


Top
 Profile E-mail  
 
 
PostPosted: 30 Dec 2017 
Работнечег
User avatar
Joined: 28 Aug 2007
Posts: 6392
Lоcаtion: г. Москва
Age: 32
Name: Дима
:thanx:


Top
 Profile E-mail  
 
 
PostPosted: 30 Dec 2017 
консэрваторъ
User avatar
Joined: 11 Aug 2007
Posts: 17809
Lоcаtion: Псков
Age: 47
Name: Сергей
Не забыть... :pavlik:

_________________
THRASH 'EM ALL


Top
 Profile E-mail  
 
 
PostPosted: 30 Dec 2017 
Генеральный thrasher
User avatar
Joined: 03 Oct 2008
Posts: 3751
Lоcаtion: Ханты-Мансийский АО
Age: 46
Name: Сергей
Забудешь...да и не твоё это


Top
 Profile  
 
Display posts from previous:  Sort by  
Post new topic Reply to topic  [ 12 posts ] 

All times are UTC + 3 hours


Who is online

Users browsing this forum: No registered users and 1 guest


You cannot post new topics in this forum
You cannot reply to topics in this forum
You cannot edit your posts in this forum
You cannot delete your posts in this forum

Search for:
Яндекс.Метрика
Powered by phpBB © 2000, 2002, 2005, 2007 phpBB Group