\m/ 80's metal \m/

Информационно-аналитический форум "80 см пыли" (In Search We Trust) "У нас никто никуда не спешит"
Me For You - http://me-4u.com
It is currently 28 Nov 2021

All times are UTC + 3 hours

Spoiler
Chat - temporary registration for foreign users (please leave your application here)







Post new topic Reply to topic  [ 11 posts ] 
Author Message
 
PostPosted: 20 Feb 2015 
Генеральный thrasher
User avatar
Joined: 03 Oct 2008
Posts: 3751
Lоcаtion: Ханты-Мансийский АО
Age: 46
Name: Сергей
Image

Year:1986 (2014 Re-Issue)
Style:Speed/Thrash Metal
Country:Switzerland
Audio:Flac+Cue+Log+Scans
Size:579Mb+332Mb
Source:my CD
Label:Blower Records

Line-Up:
V.O. Pulver - vocals,guitar
V.C. Schäfer - guitar
Thomas Steiner - bass
Walter Schäfer - drums

CD 1:
Evil Is There! (LP)
01. Shark Attack 04:31
02. Antichrist 03:22
03. Games Of Evil 03:09
04. Restless 03:13
05. Demon' s Child 04:01
06. Avenger 04:39
07. Evil Is There 04:32
08. Marshall Law 03:37
09. Torero 04:20
Evil Is There! Demo 1985
10. Intro 01:12
11. Carrion 09:15
12. Marshall Law 04:00
13. Evil Is There! 04:54
14. Satan's Blood 04:45
15. Torero 04:35
16. Avenger 04:32
17. Satan Is My Chief 05:45

CD 2:
Evil Is There! Demo 1985 (Continues)
01. Sacrifice 03:38
02. Antichrist 03:39
03. Demon's Child 04:22
Live In Kaseren Basel, Switzerland, March 3rd, 1986
04. Intro 01:16
05. Carrion 07:40
06. Games Of Evil 03:52
07. Marshall Law 03:08
08. Demon's Child 04:12
09. Shark Attack 04:26
10. Restless 03:37
11. Sacrifice 03:32
12. Antichrist 03:25
13. Torero 04:04

"Cue 1"
REM GENRE "Speed/Thrash Metal"
REM DATE 2014
REM DISCID 09117411
REM COMMENT "ExactAudioCopy v0.99pb5"
PERFORMER "Carrion"
TITLE "Evil Is There! CD 1 (Re-Issue)"
FILE "Carrion - Evil Is There! CD 1 (Re-Issue).flac" WAVE
TRACK 01 AUDIO
TITLE "Shark Attack"
PERFORMER "Carrion"
FLAGS DCP
INDEX 01 00:00:00
TRACK 02 AUDIO
TITLE "Antichrist"
PERFORMER "Carrion"
FLAGS DCP
INDEX 01 04:31:50
TRACK 03 AUDIO
TITLE "Games Of Evil"
PERFORMER "Carrion"
FLAGS DCP
INDEX 01 07:54:32
TRACK 04 AUDIO
TITLE "Restless"
PERFORMER "Carrion"
FLAGS DCP
INDEX 01 11:03:45
TRACK 05 AUDIO
TITLE "Demon's Child"
PERFORMER "Carrion"
FLAGS DCP
INDEX 01 14:17:07
TRACK 06 AUDIO
TITLE "Avenger"
PERFORMER "Carrion"
FLAGS DCP
INDEX 01 18:18:25
TRACK 07 AUDIO
TITLE "Evil Is There"
PERFORMER "Carrion"
FLAGS DCP
INDEX 01 22:57:40
TRACK 08 AUDIO
TITLE "Marshall Law"
PERFORMER "Carrion"
FLAGS DCP
INDEX 01 27:30:05
TRACK 09 AUDIO
TITLE "Torero"
PERFORMER "Carrion"
FLAGS DCP
INDEX 01 31:07:10
TRACK 10 AUDIO
TITLE "Intro"
PERFORMER "Carrion"
FLAGS DCP
INDEX 01 35:27:50
TRACK 11 AUDIO
TITLE "Carrion"
PERFORMER "Carrion"
FLAGS DCP
INDEX 01 36:40:34
TRACK 12 AUDIO
TITLE "Marshall Law"
PERFORMER "Carrion"
FLAGS DCP
INDEX 01 45:55:58
TRACK 13 AUDIO
TITLE "Evil Is There!"
PERFORMER "Carrion"
FLAGS DCP
INDEX 01 49:55:64
TRACK 14 AUDIO
TITLE "Satan's Blood"
PERFORMER "Carrion"
FLAGS DCP
INDEX 01 54:49:74
TRACK 15 AUDIO
TITLE "Torero"
PERFORMER "Carrion"
FLAGS DCP
INDEX 01 59:35:43
TRACK 16 AUDIO
TITLE "Avenger"
PERFORMER "Carrion"
FLAGS DCP
INDEX 01 64:10:53
TRACK 17 AUDIO
TITLE "Satan Is My Chief"
PERFORMER "Carrion"
FLAGS DCP
INDEX 01 68:42:57

"Cue 2"
REM GENRE "Speed/Thrash Metal"
REM DATE 2014
REM DISCID B60BF10D
REM COMMENT "ExactAudioCopy v0.99pb5"
PERFORMER "Carrion"
TITLE "Evil Is There! CD 2 (Re-Issue)"
FILE "Carrion - Evil Is There! CD 2 (Re-Issue).flac" WAVE
TRACK 01 AUDIO
TITLE "Sacrifice"
PERFORMER "Carrion"
FLAGS DCP
INDEX 01 00:00:00
TRACK 02 AUDIO
TITLE "Antichrist"
PERFORMER "Carrion"
FLAGS DCP
INDEX 01 03:38:69
TRACK 03 AUDIO
TITLE "Demon's Child"
PERFORMER "Carrion"
FLAGS DCP
INDEX 01 07:17:74
TRACK 04 AUDIO
TITLE "Intro"
PERFORMER "Carrion"
FLAGS DCP
INDEX 01 11:40:36
TRACK 05 AUDIO
TITLE "Carrion"
PERFORMER "Carrion"
FLAGS DCP
INDEX 01 12:57:22
TRACK 06 AUDIO
TITLE "Games Of Evil"
PERFORMER "Carrion"
FLAGS DCP
INDEX 01 20:37:52
TRACK 07 AUDIO
TITLE "Marshall Law"
PERFORMER "Carrion"
FLAGS DCP
INDEX 01 24:30:07
TRACK 08 AUDIO
TITLE "Demon's Child"
PERFORMER "Carrion"
FLAGS DCP
INDEX 01 27:38:53
TRACK 09 AUDIO
TITLE "Shark Attack"
PERFORMER "Carrion"
FLAGS DCP
INDEX 01 31:50:64
TRACK 10 AUDIO
TITLE "Restless"
PERFORMER "Carrion"
FLAGS DCP
INDEX 01 36:17:26
TRACK 11 AUDIO
TITLE "Sacrifice"
PERFORMER "Carrion"
FLAGS DCP
INDEX 01 39:55:06
TRACK 12 AUDIO
TITLE "Antichrist"
PERFORMER "Carrion"
FLAGS DCP
INDEX 01 43:27:66
TRACK 13 AUDIO
TITLE "Torero"
PERFORMER "Carrion"
FLAGS DCP
INDEX 01 46:53:32

"Log 1"
Exact Audio Copy V0.99 prebeta 5 from 4. May 2009

Отчёт EAC об извлечении, выполненном 19. января 2015, 19:12

Carrion / Evil Is There! CD 1 (Re-Issue)

Дисковод: MATSHITADVD-RAM UJ8A0AS Adapter: 0 ID: 1

Режим чтения : Достоверность
Использование точного потока : Да
Отключение кэша аудио : Да
Использование указателей C2 : Нет

Коррекция смещения при чтении : 102
Способность читать области Lead-in и Lead-out : Нет
Заполнение пропущенных сэмплов тишиной : Да
Удаление блоков с тишиной в начале и конце : Нет
При вычислениях CRC использовались нулевые сэмплы : Да
Интерфейс : Встроенный Win32-интерфейс для Win NT/2000

Выходной формат : Пользовательский кодировщик
Выбранный битрейт : 1024 kBit/s
Качество : Высокий
Добавление ID3-тэга : Нет
Утилита сжатия : C:\Program Files\Exact Audio Copy\FLAC\FLAC.EXE
Дополнительные параметры : -6 -V -T "ARTIST=%a" -T "TITLE=%t" -T "ALBUM=%g" -T "DATE=%y" -T "TRACKNUMBER=%n" -T "GENRE=%m" -T "COMMENT=%e" %s -o %d


TOC извлечённого CD

Трек | Старт | Длительность | Начальный сектор | Конечный сектор
---------------------------------------------------------------------
1 | 0:00.00 | 4:31.50 | 0 | 20374
2 | 4:31.50 | 3:22.57 | 20375 | 35581
3 | 7:54.32 | 3:09.13 | 35582 | 49769
4 | 11:03.45 | 3:13.37 | 49770 | 64281
5 | 14:17.07 | 4:01.18 | 64282 | 82374
6 | 18:18.25 | 4:39.15 | 82375 | 103314
7 | 22:57.40 | 4:32.40 | 103315 | 123754
8 | 27:30.05 | 3:37.05 | 123755 | 140034
9 | 31:07.10 | 4:20.40 | 140035 | 159574
10 | 35:27.50 | 1:12.59 | 159575 | 165033
11 | 36:40.34 | 9:15.24 | 165034 | 206682
12 | 45:55.58 | 4:00.06 | 206683 | 224688
13 | 49:55.64 | 4:54.10 | 224689 | 246748
14 | 54:49.74 | 4:45.44 | 246749 | 268167
15 | 59:35.43 | 4:35.10 | 268168 | 288802
16 | 64:10.53 | 4:32.04 | 288803 | 309206
17 | 68:42.57 | 5:45.69 | 309207 | 335150


Характеристики диапазона извлечения и сообщения об ошибках

Выбранный диапазон

Имя файла C:\Users\эксперт\Music\Carrion - Evil Is There! CD 1 (Re-Issue).wav

Пиковый уровень 99.6 %
Качество диапазона 99.9 %
CRC копии C5DECD67
Копирование... OK

Ошибок не произошло


AccurateRip: сводка

Трек 1 нет в базе данных
Трек 2 нет в базе данных
Трек 3 нет в базе данных
Трек 4 нет в базе данных
Трек 5 нет в базе данных
Трек 6 нет в базе данных
Трек 7 нет в базе данных
Трек 8 нет в базе данных
Трек 9 нет в базе данных
Трек 10 нет в базе данных
Трек 11 нет в базе данных
Трек 12 нет в базе данных
Трек 13 нет в базе данных
Трек 14 нет в базе данных
Трек 15 нет в базе данных
Трек 16 нет в базе данных
Трек 17 нет в базе данных

Ни одного трека нет в базе AccurateRip

Конец отчёта

"Log 2"
Exact Audio Copy V0.99 prebeta 5 from 4. May 2009

Отчёт EAC об извлечении, выполненном 19. января 2015, 21:49

Carrion / Evil Is There! CD 2 (Re-Issue)

Дисковод: MATSHITADVD-RAM UJ8A0AS Adapter: 0 ID: 1

Режим чтения : Достоверность
Использование точного потока : Да
Отключение кэша аудио : Да
Использование указателей C2 : Нет

Коррекция смещения при чтении : 102
Способность читать области Lead-in и Lead-out : Нет
Заполнение пропущенных сэмплов тишиной : Да
Удаление блоков с тишиной в начале и конце : Нет
При вычислениях CRC использовались нулевые сэмплы : Да
Интерфейс : Встроенный Win32-интерфейс для Win NT/2000

Выходной формат : Пользовательский кодировщик
Выбранный битрейт : 1024 kBit/s
Качество : Высокий
Добавление ID3-тэга : Нет
Утилита сжатия : C:\Program Files\Exact Audio Copy\FLAC\FLAC.EXE
Дополнительные параметры : -6 -V -T "ARTIST=%a" -T "TITLE=%t" -T "ALBUM=%g" -T "DATE=%y" -T "TRACKNUMBER=%n" -T "GENRE=%m" -T "COMMENT=%e" %s -o %d


TOC извлечённого CD

Трек | Старт | Длительность | Начальный сектор | Конечный сектор
---------------------------------------------------------------------
1 | 0:00.00 | 3:38.69 | 0 | 16418
2 | 3:38.69 | 3:39.05 | 16419 | 32848
3 | 7:17.74 | 4:22.37 | 32849 | 52535
4 | 11:40.36 | 1:16.61 | 52536 | 58296
5 | 12:57.22 | 7:40.30 | 58297 | 92826
6 | 20:37.52 | 3:52.30 | 92827 | 110256
7 | 24:30.07 | 3:08.46 | 110257 | 124402
8 | 27:38.53 | 4:12.11 | 124403 | 143313
9 | 31:50.64 | 4:26.37 | 143314 | 163300
10 | 36:17.26 | 3:37.55 | 163301 | 179630
11 | 39:55.06 | 3:32.60 | 179631 | 195590
12 | 43:27.66 | 3:25.41 | 195591 | 211006
13 | 46:53.32 | 4:04.08 | 211007 | 229314


Характеристики диапазона извлечения и сообщения об ошибках

Выбранный диапазон

Имя файла C:\Users\эксперт\Music\Carrion - Evil Is There! CD 2 (Re-Issue).wav

Пиковый уровень 98.1 %
Качество диапазона 100.0 %
CRC копии B5F7A691
Копирование... OK

Ошибок не произошло


AccurateRip: сводка

Трек 1 нет в базе данных
Трек 2 нет в базе данных
Трек 3 нет в базе данных
Трек 4 нет в базе данных
Трек 5 нет в базе данных
Трек 6 нет в базе данных
Трек 7 нет в базе данных
Трек 8 нет в базе данных
Трек 9 нет в базе данных
Трек 10 нет в базе данных
Трек 11 нет в базе данных
Трек 12 нет в базе данных
Трек 13 нет в базе данных

Ни одного трека нет в базе AccurateRip

Конец отчёта



Evil Is There! CD 1
Evil Is There! CD 2


Last edited by thorbeorn on 20 Feb 2015, edited 1 time in total.

Top
 Profile  
 
 
PostPosted: 20 Feb 2015 
Я набрал 1000 сообщений!
User avatar
Joined: 21 Nov 2009
Posts: 1506
Lоcаtion: praga
Age: 51
Name: Сергей
:thanx: прикольное издание.


Top
 Profile E-mail  
 
 
PostPosted: 20 Feb 2015 
\m/ 80 см сала \m/
User avatar
Joined: 12 Mar 2012
Posts: 2599
Age: 28
Name: Nick
:thanx:

_________________
1990 AUROPHON BRAINSTORM (Germany) - lossless
1994 MAUSOLEUM CLASSIX (Belgium-Germany) - lossless
1998 VA - GRIM HARVEST - Complete Metal Massacre Volumes I-XII


Top
 Profile  
 
 
PostPosted: 20 Feb 2015 
\m/ 80 см сала \m/
User avatar
Joined: 12 Mar 2012
Posts: 2599
Age: 28
Name: Nick
Эм. Серёг, обе ссылки ведут на CD2 :scratch:
***
Мексиканцы пережали аудио до безобразия. Концертная часть с воздуха, только для хардкорных фанатов.
Image

_________________
1990 AUROPHON BRAINSTORM (Germany) - lossless
1994 MAUSOLEUM CLASSIX (Belgium-Germany) - lossless
1998 VA - GRIM HARVEST - Complete Metal Massacre Volumes I-XII


Top
 Profile  
 
 
PostPosted: 20 Feb 2015 
Генеральный thrasher
User avatar
Joined: 03 Oct 2008
Posts: 3751
Lоcаtion: Ханты-Мансийский АО
Age: 46
Name: Сергей
Да-да.Исправил ссылку.Концертная часть меня не интересует.Брал чисто из-за демки.


Top
 Profile  
 
 
PostPosted: 20 Feb 2015 
\m/ 80 см сала \m/
User avatar
Joined: 12 Mar 2012
Posts: 2599
Age: 28
Name: Nick
Надо бы еще Poltergeist послушать, все никак руки\ухи не дойдут.

_________________
1990 AUROPHON BRAINSTORM (Germany) - lossless
1994 MAUSOLEUM CLASSIX (Belgium-Germany) - lossless
1998 VA - GRIM HARVEST - Complete Metal Massacre Volumes I-XII


Top
 Profile  
 
 
PostPosted: 20 Feb 2015 
Генеральный thrasher
User avatar
Joined: 03 Oct 2008
Posts: 3751
Lоcаtion: Ханты-Мансийский АО
Age: 46
Name: Сергей
Надо бы еще Poltergeist послушать, все никак руки\ухи не дойдут.


Да ну!Poltergeist вообще шикарная банда!


Top
 Profile  
 
 
PostPosted: 20 Feb 2015 
\m/ 80 см сала \m/
User avatar
Joined: 12 Mar 2012
Posts: 2599
Age: 28
Name: Nick
thorbeorn wrote:
Да ну!Poltergeist вообще шикарная банда!

Слушаю дебютник - очень бодро, но мало что запоминается с первого раза; нужно будет еще пару раз прогнать для закрепления.
Мне показалось, или музыка Poltergeist все же ближе к technical thrash, чем к традиционному молотилову?
Ух, инструментальная часть на середине Prophet хороша, сразу дебютник Despair вспоминается :true:

_________________
1990 AUROPHON BRAINSTORM (Germany) - lossless
1994 MAUSOLEUM CLASSIX (Belgium-Germany) - lossless
1998 VA - GRIM HARVEST - Complete Metal Massacre Volumes I-XII


Top
 Profile  
 
 
PostPosted: 22 Feb 2015 
Прокъмитолист
User avatar
Joined: 12 Aug 2007
Posts: 6878
Lоcаtion: Санктъ-Петербуркъ
Age: 54
Name: Олекъ
:thanx:

_________________
прокъметол - это музыко, от которово есть прок (ы)


Top
 Profile  
 
 
PostPosted: 22 Feb 2015 
Хиппей (support team)
User avatar
Joined: 30 Jul 2007
Posts: 123139
Lоcаtion: Киев (Kyiv, UA)
Age: 48
Name: Andrey
:thanx:

mirror:

CD 1 - Narod l M-Cloud
CD 2 - Narod l M-Cloud

_________________


Top
 Profile E-mail  
 
 
PostPosted: 23 Feb 2015 
Анатолий
User avatar
Joined: 18 Oct 2008
Posts: 4216
Lоcаtion: Армавир
Age: 44
Name: Анатолий
Poltergeits действительно очень достойная группа. Гитарист мне нравится. Может он всякие выкрутасы изображать. Второй альбом наверное в целом по сильнее, но на нём два минуса. Саунд и вторая половина программы.


Top
 Profile E-mail  
 
Display posts from previous:  Sort by  
Post new topic Reply to topic  [ 11 posts ] 

All times are UTC + 3 hours


Who is online

Users browsing this forum: No registered users and 1 guest


You cannot post new topics in this forum
You cannot reply to topics in this forum
You cannot edit your posts in this forum
You cannot delete your posts in this forum

Search for:
Яндекс.Метрика
Powered by phpBB © 2000, 2002, 2005, 2007 phpBB Group