\m/ 80's metal \m/

Информационно-аналитический форум "80 см пыли" (In Search We Trust) "У нас никто никуда не спешит"
Me For You - http://me-4u.com
It is currently 28 Nov 2021

All times are UTC + 3 hours

Spoiler
Chat - temporary registration for foreign users (please leave your application here)







Post new topic Reply to topic  [ 8 posts ] 
Author Message
 
PostPosted: 24 Oct 2014 
Генеральный thrasher
User avatar
Joined: 03 Oct 2008
Posts: 3751
Lоcаtion: Ханты-Мансийский АО
Age: 46
Name: Сергей
Мощнейший трэшак от замечательной итальянской капеллы!Всем трэшерам рекомендую!

Image

Year:2012
Style:Thrash Metal
Country:Italy
Audio:Flac+Cue+Log+Scans
Size:263Mb
Source:my CD
Label:Massacre Records

Line-Up:
Claudio Peterlini - vocals
Michele Finadri - drums
Davide Benedetti - guitars
Giovanni Spagnolli - guitars

Tracklist:
01. Faith 03:05
02. Virus 03:09
03. Dawn of Death 02:37
04. Carnage 02:59
05. Bio-Death 02:33
06. Chokers 03:09
07. Domination 03:01
08. Xenotransplant 02:35
09. Final Solution 04:00
10. Spyral 03:05

"Cue"
REM GENRE "Thrash Metal"
REM DATE 2012
REM DISCID 7E072B0A
REM COMMENT "ExactAudioCopy v0.99pb5"
PERFORMER "Chaos Theory"
TITLE "Bio-Death"
FILE "Chaos Theory - Bio-Death.flac" WAVE
TRACK 01 AUDIO
TITLE "Faith"
PERFORMER "Chaos Theory"
FLAGS DCP
INDEX 01 00:00:00
TRACK 02 AUDIO
TITLE "Virus"
PERFORMER "Chaos Theory"
FLAGS DCP
INDEX 00 03:05:36
INDEX 01 03:07:36
TRACK 03 AUDIO
TITLE "Dawn Of Death"
PERFORMER "Chaos Theory"
FLAGS DCP
INDEX 00 06:16:52
INDEX 01 06:18:52
TRACK 04 AUDIO
TITLE "Carnage"
PERFORMER "Chaos Theory"
FLAGS DCP
INDEX 00 08:56:22
INDEX 01 08:58:22
TRACK 05 AUDIO
TITLE "Bio-Death"
PERFORMER "Chaos Theory"
FLAGS DCP
INDEX 00 11:58:14
INDEX 01 12:00:14
TRACK 06 AUDIO
TITLE "Chokers"
PERFORMER "Chaos Theory"
FLAGS DCP
INDEX 00 14:33:29
INDEX 01 14:35:29
TRACK 07 AUDIO
TITLE "Domination"
PERFORMER "Chaos Theory"
FLAGS DCP
INDEX 00 17:45:09
INDEX 01 17:47:09
TRACK 08 AUDIO
TITLE "Xenotransplant"
PERFORMER "Chaos Theory"
FLAGS DCP
INDEX 00 20:48:16
INDEX 01 20:50:16
TRACK 09 AUDIO
TITLE "Final Solution"
PERFORMER "Chaos Theory"
FLAGS DCP
INDEX 00 23:25:35
INDEX 01 23:27:35
TRACK 10 AUDIO
TITLE "Spyral"
PERFORMER "Chaos Theory"
FLAGS DCP
INDEX 00 27:27:68
INDEX 01 27:29:68

"Log"
Exact Audio Copy V0.99 prebeta 5 from 4. May 2009

Отчёт EAC об извлечении, выполненном 8. мая 2014, 12:23

Chaos Theory / Bio-Death

Дисковод: MATSHITADVD-RAM UJ8A0AS Adapter: 0 ID: 1

Режим чтения : Достоверность
Использование точного потока : Да
Отключение кэша аудио : Да
Использование указателей C2 : Нет

Коррекция смещения при чтении : 102
Способность читать области Lead-in и Lead-out : Нет
Заполнение пропущенных сэмплов тишиной : Да
Удаление блоков с тишиной в начале и конце : Нет
При вычислениях CRC использовались нулевые сэмплы : Да
Интерфейс : Встроенный Win32-интерфейс для Win NT/2000

Выходной формат : Пользовательский кодировщик
Выбранный битрейт : 1024 kBit/s
Качество : Высокий
Добавление ID3-тэга : Нет
Утилита сжатия : C:\Program Files\Exact Audio Copy\FLAC\FLAC.EXE
Дополнительные параметры : -6 -V -T "ARTIST=%a" -T "TITLE=%t" -T "ALBUM=%g" -T "DATE=%y" -T "TRACKNUMBER=%n" -T "GENRE=%m" -T "COMMENT=%e" %s -o %d


TOC извлечённого CD

Трек | Старт | Длительность | Начальный сектор | Конечный сектор
---------------------------------------------------------------------
1 | 0:00.00 | 3:07.36 | 0 | 14060
2 | 3:07.36 | 3:11.16 | 14061 | 28401
3 | 6:18.52 | 2:39.45 | 28402 | 40371
4 | 8:58.22 | 3:01.67 | 40372 | 54013
5 | 12:00.14 | 2:35.15 | 54014 | 65653
6 | 14:35.29 | 3:11.55 | 65654 | 80033
7 | 17:47.09 | 3:03.07 | 80034 | 93765
8 | 20:50.16 | 2:37.19 | 93766 | 105559
9 | 23:27.35 | 4:02.33 | 105560 | 123742
10 | 27:29.68 | 3:05.18 | 123743 | 137635


Характеристики диапазона извлечения и сообщения об ошибках

Выбранный диапазон

Имя файла C:\Users\эксперт\Music\Chaos Theory - Bio-Death.wav

Пиковый уровень 96.4 %
Качество диапазона 100.0 %
CRC копии 529C29C2
Копирование... OK

Ошибок не произошло


AccurateRip: сводка

Трек 1 нет в базе данных
Трек 2 нет в базе данных
Трек 3 нет в базе данных
Трек 4 нет в базе данных
Трек 5 нет в базе данных
Трек 6 нет в базе данных
Трек 7 нет в базе данных
Трек 8 нет в базе данных
Трек 9 нет в базе данных
Трек 10 нет в базе данных

Ни одного трека нет в базе AccurateRip

Конец отчёта


Bio-Death


Top
 Profile  
 
 
PostPosted: 24 Oct 2014 
Alive Again
User avatar
Joined: 17 Dec 2008
Posts: 4750
Lоcаtion: Курск Воронеж Оскол
Age: 47
Name: Дмитрий
:thanx:


Top
 Profile E-mail  
 
 
PostPosted: 24 Oct 2014 
Прокъмитолист
User avatar
Joined: 12 Aug 2007
Posts: 6878
Lоcаtion: Санктъ-Петербуркъ
Age: 54
Name: Олекъ
спасибо! :thanx:

_________________
прокъметол - это музыко, от которово есть прок (ы)


Top
 Profile  
 
 
PostPosted: 24 Oct 2014 
Я набрал 1000 сообщений!
User avatar
Joined: 28 Jul 2008
Posts: 1054
Lоcаtion: Украина---Днепропетровск
Age: 47
Name: Александр
:thanx: :true:

_________________
Музыка в которой я растворяюсь многих угнетает......


Top
 Profile  
 
 
PostPosted: 26 Oct 2014 
Работнечег
User avatar
Joined: 28 Aug 2007
Posts: 6392
Lоcаtion: г. Москва
Age: 32
Name: Дима
:true: :true:


Top
 Profile E-mail  
 
 
PostPosted: 26 Oct 2014 
Хиппей (support team)
User avatar
Joined: 30 Jul 2007
Posts: 123139
Lоcаtion: Киев (Kyiv, UA)
Age: 48
Name: Andrey
:thanx:

mirror: Narod l M-Cloud

_________________


Top
 Profile E-mail  
 
 
PostPosted: 27 Oct 2014 
Хиппей (support team)
User avatar
Joined: 30 Jul 2007
Posts: 123139
Lоcаtion: Киев (Kyiv, UA)
Age: 48
Name: Andrey
Техничный и немного мягковатый трэш играют эти "макаронники". Хотя и хардкоровых фишек здесь предостаточно.
Вокал типично трэшовый - начитка + выкрики лирики. Пения как такового, естественно, нет. Ну оно и не нужно. Но вот обычно подобное дополняют смачными хуковыми бэками. Здесь этого нет, к сожалению :(
Второй минус группы - замечательный цуко-соло-гитарист, который постоянно пытается впихнуть свои паверные соляки в песни. Не, ну с таким звуком гитары (или примочкой) ему не место в трэше :nea:
А так да, альбомчик понравился. Почти в олдскульном духе исполнен :dance:

6+/10

Примечтальность:
На М-А 4 группы с аналогичным названием :lloo:
В который раз возникает резонный вопрос - почему музыканты в плане названий для своих коллективов такие ограниченные? :esel:

зы. Обнаружил с пятой прослушки кусок бэк-вокала в первом трэке :crazy: :true:

_________________


Top
 Profile E-mail  
 
 
PostPosted: 27 Oct 2014 
Хиппей (support team)
User avatar
Joined: 30 Jul 2007
Posts: 123139
Lоcаtion: Киев (Kyiv, UA)
Age: 48
Name: Andrey

_________________


Top
 Profile E-mail  
 
Display posts from previous:  Sort by  
Post new topic Reply to topic  [ 8 posts ] 

All times are UTC + 3 hours


Who is online

Users browsing this forum: No registered users and 1 guest


You cannot post new topics in this forum
You cannot reply to topics in this forum
You cannot edit your posts in this forum
You cannot delete your posts in this forum

Search for:
Яндекс.Метрика
Powered by phpBB © 2000, 2002, 2005, 2007 phpBB Group