\m/ 80's metal \m/

Информационно-аналитический форум "80 см пыли" (In Search We Trust) "У нас никто никуда не спешит"
Me For You - http://me-4u.com
It is currently 24 Jan 2021

All times are UTC + 3 hours

Spoiler
Chat - temporary registration for foreign users (please leave your application here)







Post new topic Reply to topic  [ 10 posts ] 
Author Message
 
PostPosted: 17 Oct 2014 
Генеральный thrasher
User avatar
Joined: 03 Oct 2008
Posts: 3751
Lоcаtion: Ханты-Мансийский АО
Age: 45
Name: Сергей
Image

Year:2012
Style:Progressive Thrash Metal
Country:Italy
Audio:Flac+Cue+Log+Scans
Size:438Mb
Source:my CD
Label:Self-Released

Line-Up:
Simone Costadone - guitars
Simone Cappato - bass
Davide Manna - guitars
Salvatore Mango - drums
Enrico Pulze - vocals

Tracklist:
01. Intro 01:51
02. Crop Circles 04:56
03. Infected Oxygen 05:21
04. Arabian Chaos 2012 04:24
05. Chernobyl 05:01
06. Experiment 3.9.1. 2012 04:51
07. Voo-Doo Samba 06:41
08. Lupin e il Cubo di Rubik 06:35
09. Infected Oxygen (live bonus) 05:17
10. Arabian Chaos (bonus) 04:27
11. Experiment 3.9.1. (bonus) 04:37

"Cue"
REM GENRE "Progressive Thrash Metal"
REM DATE 2012
REM DISCID 6C0CC30B
REM COMMENT "ExactAudioCopy v0.99pb5"
PERFORMER "Controsigillo"
TITLE "Controsigillo"
FILE "Controsigillo - Controsigillo.flac" WAVE
TRACK 01 AUDIO
TITLE "Intro"
PERFORMER "Controsigillo"
INDEX 01 00:00:00
TRACK 02 AUDIO
TITLE "Crop Circles"
PERFORMER "Controsigillo"
INDEX 00 01:51:46
INDEX 01 01:53:46
TRACK 03 AUDIO
TITLE "Infected Oxygen"
PERFORMER "Controsigillo"
INDEX 00 06:49:59
INDEX 01 06:51:59
TRACK 04 AUDIO
TITLE "Arabian Chaos 2012"
PERFORMER "Controsigillo"
INDEX 00 12:13:48
INDEX 01 12:15:48
TRACK 05 AUDIO
TITLE "Chernobyl"
PERFORMER "Controsigillo"
INDEX 00 16:40:19
INDEX 01 16:42:19
TRACK 06 AUDIO
TITLE "Experiment 3.9.1. 2012"
PERFORMER "Controsigillo"
INDEX 00 21:43:71
INDEX 01 21:45:71
TRACK 07 AUDIO
TITLE "Voo-Doo Samba"
PERFORMER "Controsigillo"
INDEX 00 26:37:42
INDEX 01 26:39:42
TRACK 08 AUDIO
TITLE "Lupin e il Cubo di Rubik"
PERFORMER "Controsigillo"
INDEX 00 33:21:16
INDEX 01 33:23:16
TRACK 09 AUDIO
TITLE "Infected Oxygen (live bonus track)"
PERFORMER "Controsigillo"
INDEX 00 39:58:38
INDEX 01 40:00:38
TRACK 10 AUDIO
TITLE "Arabian Chaos (bonus)"
PERFORMER "Controsigillo"
INDEX 00 45:18:38
INDEX 01 45:20:38
TRACK 11 AUDIO
TITLE "Experiment 3.9.1. (bonus)"
PERFORMER "Controsigillo"
INDEX 00 49:48:18
INDEX 01 49:50:18

"Log"
Exact Audio Copy V0.99 prebeta 5 from 4. May 2009

Отчёт EAC об извлечении, выполненном 9. мая 2014, 20:34

Controsigillo / Controsigillo

Дисковод: MATSHITADVD-RAM UJ8A0AS Adapter: 0 ID: 1

Режим чтения : Достоверность
Использование точного потока : Да
Отключение кэша аудио : Да
Использование указателей C2 : Нет

Коррекция смещения при чтении : 102
Способность читать области Lead-in и Lead-out : Нет
Заполнение пропущенных сэмплов тишиной : Да
Удаление блоков с тишиной в начале и конце : Нет
При вычислениях CRC использовались нулевые сэмплы : Да
Интерфейс : Встроенный Win32-интерфейс для Win NT/2000

Выходной формат : Пользовательский кодировщик
Выбранный битрейт : 1024 kBit/s
Качество : Высокий
Добавление ID3-тэга : Нет
Утилита сжатия : C:\Program Files\Exact Audio Copy\FLAC\FLAC.EXE
Дополнительные параметры : -6 -V -T "ARTIST=%a" -T "TITLE=%t" -T "ALBUM=%g" -T "DATE=%y" -T "TRACKNUMBER=%n" -T "GENRE=%m" -T "COMMENT=%e" %s -o %d


TOC извлечённого CD

Трек | Старт | Длительность | Начальный сектор | Конечный сектор
---------------------------------------------------------------------
1 | 0:00.00 | 1:53.46 | 0 | 8520
2 | 1:53.46 | 4:58.13 | 8521 | 30883
3 | 6:51.59 | 5:23.64 | 30884 | 55172
4 | 12:15.48 | 4:26.46 | 55173 | 75168
5 | 16:42.19 | 5:03.52 | 75169 | 97945
6 | 21:45.71 | 4:53.46 | 97946 | 119966
7 | 26:39.42 | 6:43.49 | 119967 | 150240
8 | 33:23.16 | 6:37.22 | 150241 | 180037
9 | 40:00.38 | 5:20.00 | 180038 | 204037
10 | 45:20.38 | 4:29.55 | 204038 | 224267
11 | 49:50.18 | 4:37.16 | 224268 | 245058


Характеристики диапазона извлечения и сообщения об ошибках

Выбранный диапазон

Имя файла C:\Users\эксперт\Music\Controsigillo - Controsigillo.wav

Пиковый уровень 98.8 %
Качество диапазона 100.0 %
CRC копии E404D6C8
Копирование... OK

Ошибок не произошло


AccurateRip: сводка

Трек 1 нет в базе данных
Трек 2 нет в базе данных
Трек 3 нет в базе данных
Трек 4 нет в базе данных
Трек 5 нет в базе данных
Трек 6 нет в базе данных
Трек 7 нет в базе данных
Трек 8 нет в базе данных
Трек 9 нет в базе данных
Трек 10 нет в базе данных
Трек 11 нет в базе данных

Ни одного трека нет в базе AccurateRip

Конец отчёта


Controsigillo


Top
 Profile  
 
 
PostPosted: 17 Oct 2014 
Генеральный thrasher
User avatar
Joined: 03 Oct 2008
Posts: 3751
Lоcаtion: Ханты-Мансийский АО
Age: 45
Name: Сергей
Команда на любителя.Мне лично нравится.Понравится и тем,кто любит послушать Watchtower и Nevermore.Думается Олег spiralarch оценит сей опус.Остальным тоже рекомендую!


Top
 Profile  
 
 
PostPosted: 17 Oct 2014 
Прокъмитолист
User avatar
Joined: 12 Aug 2007
Posts: 6795
Lоcаtion: Санктъ-Петербуркъ
Age: 53
Name: Олекъ
спасибо, Серёга! :thanx: чувствую, что должна быть "моя" вещь :true:

_________________
прокъметол - это музыко, от которово есть прок (ы)


Top
 Profile  
 
 
PostPosted: 17 Oct 2014 
ТрэшЭрос
User avatar
Joined: 18 Jul 2011
Posts: 2307
Lоcаtion: Гулькевичи
Age: 46
Name: Александр
thorbeorn, :thanx:
:true:

_________________
Thrash no trash!!!


Top
 Profile E-mail  
 
 
PostPosted: 17 Oct 2014 
Хиппей (support team)
User avatar
Joined: 30 Jul 2007
Posts: 119887
Lоcаtion: Киев (Kyiv, UA)
Age: 47
Name: Andrey
:thanx: Моя тоже забирать лося макаронового и явно моя тема тоже :dance:

mirror: Narod l M-Cloud

_________________


Top
 Profile E-mail  
 
 
PostPosted: 17 Oct 2014 
Хиппей (support team)
User avatar
Joined: 30 Jul 2007
Posts: 119887
Lоcаtion: Киев (Kyiv, UA)
Age: 47
Name: Andrey
thorbeorn wrote:
Команда на любителя

Ага, точно. Мне не покатила эта самодеятельность :pardon:
зы. Откель (чем) такой неприятный звук издаёт соло-гитарист? :esel:

_________________


Top
 Profile E-mail  
 
 
PostPosted: 17 Oct 2014 
Я набрал 1000 сообщений!
User avatar
Joined: 28 Jul 2008
Posts: 1023
Lоcаtion: Украина---Днепропетровск
Age: 46
Name: Александр
И я забираю :oops:
:thanx:

_________________
Музыка в которой я растворяюсь многих угнетает......


Top
 Profile  
 
 
PostPosted: 17 Oct 2014 
Генеральный thrasher
User avatar
Joined: 03 Oct 2008
Posts: 3751
Lоcаtion: Ханты-Мансийский АО
Age: 45
Name: Сергей
To Scatterbrain - Андрюх,а я и не думал,что тебе понравится... :pardon:


Top
 Profile  
 
 
PostPosted: 17 Oct 2014 
Хиппей (support team)
User avatar
Joined: 30 Jul 2007
Posts: 119887
Lоcаtion: Киев (Kyiv, UA)
Age: 47
Name: Andrey
Серёг, ну ты упомянул Невермор, так я и ожидал и здесь стену звука, придавливающего с первой же секунды в стенке и не отпускающего пока альбом не закончится, а услушал... В общем, слабые потуги быть крутыми музыкантами :yyy:

_________________


Top
 Profile E-mail  
 
 
PostPosted: 18 Oct 2014 
Alive Again
User avatar
Joined: 17 Dec 2008
Posts: 4750
Lоcаtion: Курск Воронеж Оскол
Age: 46
Name: Дмитрий
:thanx:


Top
 Profile E-mail  
 
Display posts from previous:  Sort by  
Post new topic Reply to topic  [ 10 posts ] 

All times are UTC + 3 hours


Who is online

Users browsing this forum: No registered users and 1 guest


You cannot post new topics in this forum
You cannot reply to topics in this forum
You cannot edit your posts in this forum
You cannot delete your posts in this forum
You cannot post attachments in this forum

Search for:
Яндекс.Метрика
Powered by phpBB © 2000, 2002, 2005, 2007 phpBB Group