\m/ 80's metal \m/

Информационно-аналитический форум "80 см пыли" (In Search We Trust) "У нас никто никуда не спешит"
Me For You - http://me-4u.com
It is currently 19 Jan 2021

All times are UTC + 3 hours

Spoiler
Chat - temporary registration for foreign users (please leave your application here)







Post new topic Reply to topic  [ 11 posts ] 
Author Message
 
PostPosted: 07 Sep 2014 
Генеральный thrasher
User avatar
Joined: 03 Oct 2008
Posts: 3751
Lоcаtion: Ханты-Мансийский АО
Age: 45
Name: Сергей
Image

Year:1993
Style:Thrash Metal
Country:Belgium
Audio:Flac+Cue+Log+Scans
Size:242Mb
Source:my CD
Label:Electrip Records

Line-Up:
Wannes De Coninck - rhythm guitar,vocals
Manuel Rios - lead and rhythm guitar (bass on "Fruitcakes We Have Known")
Christian Z. - drums
Steve - bass

Tracklist:
01. Brick By Brick 02:51
02. Hot Dog & Beercanhill 03:17
03. Civilised Genocide 03:14
04. House Of Dispair 05:52
05. Here Comes King Gossip 04:32
06. Miss Brainless 03:22
07. Tortured Minds 02:42
08. Clowns 04:22
09. Suicide Letters 03:46

"Cue"
REM GENRE "Thrash Metal"
REM DATE 1993
REM DISCID 6A080A09
REM COMMENT "ExactAudioCopy v0.99pb5"
PERFORMER "Catalepsy"
TITLE "Fruitcakes We Have Known"
FILE "Catalepsy - Fruitcakes We Have Known.flac" WAVE
TRACK 01 AUDIO
TITLE "Brick By Brick"
PERFORMER "Catalepsy"
INDEX 00 00:00:00
INDEX 01 00:00:33
TRACK 02 AUDIO
TITLE "hot Dog And Beercanhill"
PERFORMER "Catalepsy"
INDEX 00 02:51:53
INDEX 01 02:53:20
TRACK 03 AUDIO
TITLE "Civilised Genocide"
PERFORMER "Catalepsy"
INDEX 00 06:10:60
INDEX 01 06:12:60
TRACK 04 AUDIO
TITLE "House Of Dispair"
PERFORMER "Catalepsy"
INDEX 00 09:26:63
INDEX 01 09:29:25
TRACK 05 AUDIO
TITLE "Here Comes King Gossip"
PERFORMER "Catalepsy"
INDEX 00 15:21:50
INDEX 01 15:23:63
TRACK 06 AUDIO
TITLE "Miss Brainless"
PERFORMER "Catalepsy"
INDEX 00 19:56:35
INDEX 01 19:58:10
TRACK 07 AUDIO
TITLE "Tortured Minds"
PERFORMER "Catalepsy"
INDEX 00 23:20:73
INDEX 01 23:22:58
TRACK 08 AUDIO
TITLE "Clowns"
PERFORMER "Catalepsy"
INDEX 00 26:05:20
INDEX 01 26:07:18
TRACK 09 AUDIO
TITLE "Suicide Letters"
PERFORMER "Catalepsy"
INDEX 00 30:30:03
INDEX 01 30:31:28

"Log"
Exact Audio Copy V0.99 prebeta 5 from 4. May 2009

Отчёт EAC об извлечении, выполненном 23. ноября 2012, 11:10

Catalepsy / Fruitcakes We Have Known

Дисковод: TSSTcorpCDDVDW SH-S202N Adapter: 0 ID: 1

Режим чтения : Достоверность
Использование точного потока : Да
Отключение кэша аудио : Да
Использование указателей C2 : Нет

Коррекция смещения при чтении : 6
Способность читать области Lead-in и Lead-out : Нет
Заполнение пропущенных сэмплов тишиной : Да
Удаление блоков с тишиной в начале и конце : Нет
При вычислениях CRC использовались нулевые сэмплы : Да
Интерфейс : Встроенный Win32-интерфейс для Win NT/2000

Выходной формат : Пользовательский кодировщик
Выбранный битрейт : 768 kBit/s
Качество : Высокий
Добавление ID3-тэга : Нет
Утилита сжатия : C:\Program Files\Exact Audio Copy\FLAC\FLAC.EXE
Дополнительные параметры : -6 -V -T "ARTIST=%a" -T "TITLE=%t" -T "ALBUM=%g" -T "DATE=%y" -T "TRACKNUMBER=%n" -T "GENRE=%m" -T "COMMENT=%e" %s -o %d


TOC извлечённого CD

Трек | Старт | Длительность | Начальный сектор | Конечный сектор
---------------------------------------------------------------------
1 | 0:00.33 | 2:52.62 | 33 | 12994
2 | 2:53.20 | 3:19.40 | 12995 | 27959
3 | 6:12.60 | 3:16.40 | 27960 | 42699
4 | 9:29.25 | 5:54.38 | 42700 | 69287
5 | 15:23.63 | 4:34.22 | 69288 | 89859
6 | 19:58.10 | 3:24.48 | 89860 | 105207
7 | 23:22.58 | 2:44.35 | 105208 | 117542
8 | 26:07.18 | 4:24.10 | 117543 | 137352
9 | 30:31.28 | 3:46.62 | 137353 | 154364


Характеристики диапазона извлечения и сообщения об ошибках

Выбранный диапазон

Имя файла E:\Лоси\C\Catalepsy - Fruitcakes we Have Known.wav

Пиковый уровень 98.8 %
Качество диапазона 100.0 %
CRC копии C5B01098
Копирование... OK

Ошибок не произошло


AccurateRip: сводка

Трек 1 нет в базе данных
Трек 2 нет в базе данных
Трек 3 нет в базе данных
Трек 4 нет в базе данных
Трек 5 нет в базе данных
Трек 6 нет в базе данных
Трек 7 нет в базе данных
Трек 8 нет в базе данных
Трек 9 нет в базе данных

Ни одного трека нет в базе AccurateRip

Конец отчёта


Fruitcakes We Have Known


Top
 Profile  
 
 
PostPosted: 07 Sep 2014 
\m/ 80 см сала \m/
User avatar
Joined: 12 Mar 2012
Posts: 2599
Age: 27
Name: Nick
:thanx: :true:

_________________
1990 AUROPHON BRAINSTORM (Germany) - lossless
1994 MAUSOLEUM CLASSIX (Belgium-Germany) - lossless
1998 VA - GRIM HARVEST - Complete Metal Massacre Volumes I-XII


Top
 Profile  
 
 
PostPosted: 07 Sep 2014 
Генеральный thrasher
User avatar
Joined: 03 Oct 2008
Posts: 3751
Lоcаtion: Ханты-Мансийский АО
Age: 45
Name: Сергей
Вся дискография здесь!Приятного прослушивания! :true:


Top
 Profile  
 
 
PostPosted: 07 Sep 2014 
Прокъмитолист
User avatar
Joined: 12 Aug 2007
Posts: 6786
Lоcаtion: Санктъ-Петербуркъ
Age: 53
Name: Олекъ
вроде есть, но ради сканов качну еще раз. спасибо, Серёг! :thanx:

_________________
прокъметол - это музыко, от которово есть прок (ы)


Top
 Profile  
 
 
PostPosted: 07 Sep 2014 
Генеральный thrasher
User avatar
Joined: 03 Oct 2008
Posts: 3751
Lоcаtion: Ханты-Мансийский АО
Age: 45
Name: Сергей
вроде есть, но ради сканов качну еще раз. спасибо, Серёг! :thanx:


У тебя наверное рип от gnoppi,да Олег?


Top
 Profile  
 
 
PostPosted: 07 Sep 2014 
Прокъмитолист
User avatar
Joined: 12 Aug 2007
Posts: 6786
Lоcаtion: Санктъ-Петербуркъ
Age: 53
Name: Олекъ
да, так и есть.

_________________
прокъметол - это музыко, от которово есть прок (ы)


Top
 Profile  
 
 
PostPosted: 07 Sep 2014 
Хиппей (support team)
User avatar
Joined: 30 Jul 2007
Posts: 119816
Lоcаtion: Киев (Kyiv, UA)
Age: 47
Name: Andrey
:thanx:

mirror: Narod l M-Cloud

_________________


Top
 Profile E-mail  
 
 
PostPosted: 07 Sep 2014 
Навечно изгнанный
User avatar
Joined: 04 May 2009
Posts: 510
Lоcаtion: Загорск (Сергиев Посад)
Age: 49
Name: Евгений
Спасибо! :thanx:

_________________
"$? -Это не деньги! Рубли давайте!"


Top
 Profile  
 
 
PostPosted: 08 Sep 2014 
Я набрал 1000 сообщений!
User avatar
Joined: 28 Jul 2008
Posts: 1023
Lоcаtion: Украина---Днепропетровск
Age: 46
Name: Александр
:thanx: :true:

_________________
Музыка в которой я растворяюсь многих угнетает......


Top
 Profile  
 
 
PostPosted: 13 Sep 2014 
Alive Again
User avatar
Joined: 17 Dec 2008
Posts: 4750
Lоcаtion: Курск Воронеж Оскол
Age: 46
Name: Дмитрий
:thanx:


Top
 Profile E-mail  
 
 
PostPosted: 06 Oct 2014 
Персональный статус
User avatar
Joined: 04 Mar 2012
Posts: 239
Lоcаtion: Саратов
Name: Василий
:thanx:


Top
 Profile E-mail  
 
Display posts from previous:  Sort by  
Post new topic Reply to topic  [ 11 posts ] 

All times are UTC + 3 hours


Who is online

Users browsing this forum: No registered users and 1 guest


You cannot post new topics in this forum
You cannot reply to topics in this forum
You cannot edit your posts in this forum
You cannot delete your posts in this forum
You cannot post attachments in this forum

Search for:
Яндекс.Метрика
Powered by phpBB © 2000, 2002, 2005, 2007 phpBB Group