\m/ 80's metal \m/

Информационно-аналитический форум "80 см пыли" (In Search We Trust) "У нас никто никуда не спешит"
Me For You - http://me-4u.com
It is currently 28 Jan 2021

All times are UTC + 3 hours

Spoiler
Chat - temporary registration for foreign users (please leave your application here)







Post new topic Reply to topic  [ 12 posts ] 
Author Message
 
PostPosted: 17 Aug 2014 
Генеральный thrasher
User avatar
Joined: 03 Oct 2008
Posts: 3751
Lоcаtion: Ханты-Мансийский АО
Age: 45
Name: Сергей
Image

Year:1994
Style:Thrash Metal
Country:Belgium
Audio:Flac+Cue+Log+Scans
Size:346Mb
Source:my CD
Label:Fruitcake Productions

Line-Up:
Wannes De Coninck - vocals,guitars
Christian Z. - drums
Manuel Rios - lead guitar
Steve - bass

Tracklist:
01. Speed it up 04:11
02. Dishwasher 03:30
03. Through Glass 06:02
04. Valentine's Day 03:04
05. Rust 03:42
06. Daddy's Kind 03:27
07. Buttsucker 02:54
08. Green 04:18
09. Blinded 05:01
10. Going Cold 05:16
11. Paint The Town 14:16

"Cue"
REM GENRE "Thrash Metal"
REM DATE 1994
REM DISCID 890D140B
REM COMMENT "ExactAudioCopy v0.99pb5"
PERFORMER "Catalepsy"
TITLE "Dragged Inside Out"
FILE "Catalepsy - Dragged Inside Out.flac" WAVE
TRACK 01 AUDIO
TITLE "Speed it up"
PERFORMER "Catalepsy"
FLAGS DCP
INDEX 00 00:00:00
INDEX 01 00:00:30
TRACK 02 AUDIO
TITLE "Dishwasher"
PERFORMER "Catalepsy"
FLAGS DCP
INDEX 01 04:11:67
TRACK 03 AUDIO
TITLE "Through Glass"
PERFORMER "Catalepsy"
FLAGS DCP
INDEX 01 07:42:30
TRACK 04 AUDIO
TITLE "Valentine's Day"
PERFORMER "Catalepsy"
FLAGS DCP
INDEX 01 13:45:10
TRACK 05 AUDIO
TITLE "Rust"
PERFORMER "Catalepsy"
FLAGS DCP
INDEX 01 16:49:24
TRACK 06 AUDIO
TITLE "Daddy's kind"
PERFORMER "Catalepsy"
FLAGS DCP
INDEX 01 20:32:23
TRACK 07 AUDIO
TITLE "Buttsucker"
PERFORMER "Catalepsy"
FLAGS DCP
INDEX 01 24:00:15
TRACK 08 AUDIO
TITLE "Green"
PERFORMER "Catalepsy"
FLAGS DCP
INDEX 01 26:55:00
TRACK 09 AUDIO
TITLE "Blinded"
PERFORMER "Catalepsy"
FLAGS DCP
INDEX 01 31:13:40
TRACK 10 AUDIO
TITLE "Going Cold"
PERFORMER "Catalepsy"
FLAGS DCP
INDEX 01 36:14:61
TRACK 11 AUDIO
TITLE "Paint The Town"
PERFORMER "Catalepsy"
FLAGS DCP
INDEX 01 41:31:21

"Log"
Exact Audio Copy V0.99 prebeta 5 from 4. May 2009

Отчёт EAC об извлечении, выполненном 19. ноября 2013, 17:28

Catalepsy / Dragged Inside Out

Дисковод: MATSHITADVD-RAM UJ8A0AS Adapter: 0 ID: 1

Режим чтения : Достоверность
Использование точного потока : Да
Отключение кэша аудио : Да
Использование указателей C2 : Нет

Коррекция смещения при чтении : 102
Способность читать области Lead-in и Lead-out : Нет
Заполнение пропущенных сэмплов тишиной : Да
Удаление блоков с тишиной в начале и конце : Нет
При вычислениях CRC использовались нулевые сэмплы : Да
Интерфейс : Встроенный Win32-интерфейс для Win NT/2000

Выходной формат : Пользовательский кодировщик
Выбранный битрейт : 1024 kBit/s
Качество : Высокий
Добавление ID3-тэга : Нет
Утилита сжатия : C:\Program Files\Exact Audio Copy\FLAC\FLAC.EXE
Дополнительные параметры : -6 -V -T "ARTIST=%a" -T "TITLE=%t" -T "ALBUM=%g" -T "DATE=%y" -T "TRACKNUMBER=%n" -T "GENRE=%m" -T "COMMENT=%e" %s -o %d


TOC извлечённого CD

Трек | Старт | Длительность | Начальный сектор | Конечный сектор
---------------------------------------------------------------------
1 | 0:00.30 | 4:11.37 | 30 | 18891
2 | 4:11.67 | 3:30.38 | 18892 | 34679
3 | 7:42.30 | 6:02.55 | 34680 | 61884
4 | 13:45.10 | 3:04.14 | 61885 | 75698
5 | 16:49.24 | 3:42.74 | 75699 | 92422
6 | 20:32.23 | 3:27.67 | 92423 | 108014
7 | 24:00.15 | 2:54.60 | 108015 | 121124
8 | 26:55.00 | 4:18.40 | 121125 | 140514
9 | 31:13.40 | 5:01.21 | 140515 | 163110
10 | 36:14.61 | 5:16.35 | 163111 | 186845
11 | 41:31.21 | 14:16.58 | 186846 | 251103


Характеристики диапазона извлечения и сообщения об ошибках

Выбранный диапазон

Имя файла C:\Users\эксперт\Music\Catalepsy - Dragged Inside Out.wav

Пиковый уровень 98.2 %
Качество диапазона 100.0 %
CRC копии EFC99AEC
Копирование... OK

Ошибок не произошло


AccurateRip: сводка

Трек 1 точное извлечение (доверие 1) [2F7DACB5]
Трек 2 точное извлечение (доверие 1) [9ACE6B15]
Трек 3 точное извлечение (доверие 1) [F1A25DC4]
Трек 4 точное извлечение (доверие 1) [030D2DB8]
Трек 5 точное извлечение (доверие 1) [CB75135A]
Трек 6 точное извлечение (доверие 1) [BDDA12E1]
Трек 7 точное извлечение (доверие 1) [947A056C]
Трек 8 точное извлечение (доверие 1) [0EED4267]
Трек 9 точное извлечение (доверие 1) [DB0DF64D]
Трек 10 точное извлечение (доверие 1) [14E36026]
Трек 11 точное извлечение (доверие 1) [F6F285F6]

Все треки извлечены точно

Конец отчёта


Dragged Inside Out


Top
 Profile  
 
 
PostPosted: 17 Aug 2014 
Прокъмитолист
User avatar
Joined: 12 Aug 2007
Posts: 6795
Lоcаtion: Санктъ-Петербуркъ
Age: 53
Name: Олекъ
Серёга, спасибо! :thanx:

_________________
прокъметол - это музыко, от которово есть прок (ы)


Top
 Profile  
 
 
PostPosted: 17 Aug 2014 
Генеральный thrasher
User avatar
Joined: 03 Oct 2008
Posts: 3751
Lоcаtion: Ханты-Мансийский АО
Age: 45
Name: Сергей
Да на здоровье,Олег!Здесь уже не тот трэшак как на дебюте.Мне кажется данный альбом вполне соответствует твоим музыкальным вкусам.


Top
 Profile  
 
 
PostPosted: 17 Aug 2014 
Хиппей (support team)
User avatar
Joined: 30 Jul 2007
Posts: 119981
Lоcаtion: Киев (Kyiv, UA)
Age: 47
Name: Andrey
:thanx:

mirror: Narod l M-Cloud

_________________


Top
 Profile E-mail  
 
 
PostPosted: 17 Aug 2014 
Я набрал 1000 сообщений!
User avatar
Joined: 02 Feb 2009
Posts: 1000
Lоcаtion: из Тулы
Age: 46
Name: Максим
спасибо Серег
редкая вещь
где разжился?
небось полтораху отвалил?

_________________
КМА


Top
 Profile  
 
 
PostPosted: 17 Aug 2014 
Генеральный thrasher
User avatar
Joined: 03 Oct 2008
Posts: 3751
Lоcаtion: Ханты-Мансийский АО
Age: 45
Name: Сергей
Чуть поменьше,Максим...Да это и неважно.


Top
 Profile  
 
 
PostPosted: 17 Aug 2014 
Я набрал 1000 сообщений!
User avatar
Joined: 28 Jul 2008
Posts: 1025
Lоcаtion: Украина---Днепропетровск
Age: 46
Name: Александр
:thanx:

_________________
Музыка в которой я растворяюсь многих угнетает......


Top
 Profile  
 
 
PostPosted: 17 Aug 2014 
Хиппей (support team)
User avatar
Joined: 30 Jul 2007
Posts: 119981
Lоcаtion: Киев (Kyiv, UA)
Age: 47
Name: Andrey
:dance:

_________________


Top
 Profile E-mail  
 
 
PostPosted: 06 Sep 2014 
Alive Again
User avatar
Joined: 17 Dec 2008
Posts: 4750
Lоcаtion: Курск Воронеж Оскол
Age: 46
Name: Дмитрий
:thanx:


Top
 Profile E-mail  
 
 
PostPosted: 07 Sep 2014 
спирт 100%
User avatar
Joined: 22 Sep 2008
Posts: 4617
Age: 49
Name: Саня
Спасибо! :thanx:


Top
 Profile  
 
 
PostPosted: 07 Sep 2014 
\m/ 80 см сала \m/
User avatar
Joined: 12 Mar 2012
Posts: 2599
Age: 27
Name: Nick
:thanx:
А дебютника в лосях\на СD не имеешь в закромах случайно? :oops:

_________________
1990 AUROPHON BRAINSTORM (Germany) - lossless
1994 MAUSOLEUM CLASSIX (Belgium-Germany) - lossless
1998 VA - GRIM HARVEST - Complete Metal Massacre Volumes I-XII


Top
 Profile  
 
 
PostPosted: 07 Sep 2014 
Генеральный thrasher
User avatar
Joined: 03 Oct 2008
Posts: 3751
Lоcаtion: Ханты-Мансийский АО
Age: 45
Name: Сергей
:thanx:
А дебютника в лосях\на СD не имеешь в закромах случайно? :oops:


Конечно имею.Сейчас забацаю!!!


Top
 Profile  
 
Display posts from previous:  Sort by  
Post new topic Reply to topic  [ 12 posts ] 

All times are UTC + 3 hours


Who is online

Users browsing this forum: No registered users and 2 guests


You cannot post new topics in this forum
You cannot reply to topics in this forum
You cannot edit your posts in this forum
You cannot delete your posts in this forum
You cannot post attachments in this forum

Search for:
Яндекс.Метрика
Powered by phpBB © 2000, 2002, 2005, 2007 phpBB Group