\m/ 80's metal \m/

Информационно-аналитический форум "80 см пыли" (In Search We Trust) "У нас никто никуда не спешит"
Me For You - http://me-4u.com
It is currently 19 Jan 2021

All times are UTC + 3 hours

Spoiler
Chat - temporary registration for foreign users (please leave your application here)







Post new topic Reply to topic  [ 19 posts ] 
Author Message
 
PostPosted: 20 Apr 2014 
консэрваторъ
User avatar
Joined: 11 Aug 2007
Posts: 17704
Lоcаtion: Псков
Age: 46
Name: Сергей
Я так понимаю, что искать 320 в этом случае смысла не имеет, посему запрос сразу в правильном разделе...

Capricorn [DEU] - 1995 - Inferno (Japan)

Image

1. Iced Age 01:45
2. Claws Of The Mad 04:16
3. The Wire Fence 04:41
4. Daed Can Walk 04:08
5. Moonstruck 05:37
6. Iron Bitter 04:10
7. Gun For Hire 04:06
8. A Call For Defiance 03:54
9. You Can't Stop Rock'n'Roll (Twisted Sister cover) 04:28
10. Camp Blood 03:18
11. Inferno 05:49
12. Incredibly Ruined (Japanese Bonus Track)

Label: T&T/Victor Entertainment
Kat.#: VICP-5512
Matrix: VICP - 5512 - 1 - 1F

Если кто соберётся куплять, добавлю 50 процентов... :oops: Вот например... Мне тока зверюшку, остальное Вам... :oops:

Коллектор сцылей:
1993 немец у нас... viewtopic.php?f=176&t=8379
1993 япошка на тракторе... http://rutracker.org/forum/viewtopic.php?t=4023310
1995 немец у нас... viewtopic.php?f=176&t=7652
Оба немца на тракторе... http://rutracker.org/forum/viewtopic.php?t=3068416

_________________
THRASH 'EM ALL


Last edited by splatty on 08 Oct 2014, edited 1 time in total.

Top
 Profile E-mail  
 
 
PostPosted: 22 Apr 2014 
Metal Collector
User avatar
Joined: 16 Nov 2008
Posts: 1364
Lоcаtion: Химки
Age: 37
Name: Андрей
Присоединяюсь к запросу.


Top
 Profile E-mail  
 
 
PostPosted: 22 Apr 2014 
Хиппей (support team)
User avatar
Joined: 30 Jul 2007
Posts: 119806
Lоcаtion: Киев (Kyiv, UA)
Age: 47
Name: Andrey
Вот вы гоните с бонусами то... :starz:

_________________


Top
 Profile E-mail  
 
 
PostPosted: 22 Apr 2014 
консэрваторъ
User avatar
Joined: 11 Aug 2007
Posts: 17704
Lоcаtion: Псков
Age: 46
Name: Сергей
Андрюх, я на данном этапе предлагаю привнести в этот виртуальный мир вполне реальный продукт, при чём довольно рарный... А где я писал про бонусы?.. :al:
Располовинить сумму хочу только из-за того, что мне пластик в доме лишний не нужен...

_________________
THRASH 'EM ALL


Top
 Profile E-mail  
 
 
PostPosted: 23 Apr 2014 
Хиппей (support team)
User avatar
Joined: 30 Jul 2007
Posts: 119806
Lоcаtion: Киев (Kyiv, UA)
Age: 47
Name: Andrey
splatty wrote:
где я писал про бонусы?..

Упс, а ради чего ж ты ищешь именно эти издания? :lloo:
Или я читал не столь внимательно запрос... :oops:

_________________


Top
 Profile E-mail  
 
 
PostPosted: 23 Apr 2014 
консэрваторъ
User avatar
Joined: 11 Aug 2007
Posts: 17704
Lоcаtion: Псков
Age: 46
Name: Сергей
Это издание ищется... :scratch: Чтобы было... Как-то так...

_________________
THRASH 'EM ALL


Top
 Profile E-mail  
 
 
PostPosted: 23 Apr 2014 
Хиппей (support team)
User avatar
Joined: 30 Jul 2007
Posts: 119806
Lоcаtion: Киев (Kyiv, UA)
Age: 47
Name: Andrey
Ага, понял. Тогда засада небольшая. Андрюха Террион тоже не собирает уже диски, так что действительно нужно искать третьего... :umnik:

_________________


Top
 Profile E-mail  
 
 
PostPosted: 23 Apr 2014 
Прокъмитолист
User avatar
Joined: 12 Aug 2007
Posts: 6786
Lоcаtion: Санктъ-Петербуркъ
Age: 53
Name: Олекъ
да я бы может и купил, но во-первых, немного опоздал (хотя наверняка снова выставят), а во-вторых, в упор не вижу никакого бонуса в описании лота :pardon:

_________________
прокъметол - это музыко, от которово есть прок (ы)


Top
 Profile  
 
 
PostPosted: 23 Apr 2014 
Хиппей (support team)
User avatar
Joined: 30 Jul 2007
Posts: 119806
Lоcаtion: Киев (Kyiv, UA)
Age: 47
Name: Andrey
Спёрли :shok:

_________________


Top
 Profile E-mail  
 
 
PostPosted: 24 Apr 2014 
консэрваторъ
User avatar
Joined: 11 Aug 2007
Posts: 17704
Lоcаtion: Псков
Age: 46
Name: Сергей
spiralarch wrote:
да я бы может и купил

Да я бы и посодействовал в финансирование проекта...
spiralarch wrote:
не вижу никакого бонуса в описании лота

А это косячок продавца... Номер VICP-5512 содержит 12-ый трек точно... И если к обихе приглядеться внимательно, то 12-ая песня на ней видна... Но увы да, тот лот мы уже профукали... Ждём нового всплытия...
€20,00
¥1,300
$19.76

_________________
THRASH 'EM ALL


Top
 Profile E-mail  
 
 
PostPosted: 07 Oct 2014 
консэрваторъ
User avatar
Joined: 11 Aug 2007
Posts: 17704
Lоcаtion: Псков
Age: 46
Name: Сергей
Уже скоро... :oops:

_________________
THRASH 'EM ALL


Top
 Profile E-mail  
 
 
PostPosted: 08 Oct 2014 
Работнечег
User avatar
Joined: 28 Aug 2007
Posts: 6363
Lоcаtion: г. Москва
Age: 31
Name: Дима
Наспех оформляю, вроде остальная информация по альбому в топике есть ;)
LOG
Exact Audio Copy V0.99 prebeta 5 from 4. May 2009

EAC extraction logfile from 6. October 2014, 19:43

Capricorn / Inferno (Japan)

Used drive : PIONEER DVD-RW DVR-116D Adapter: 0 ID: 0

Read mode : Secure
Utilize accurate stream : Yes
Defeat audio cache : Yes
Make use of C2 pointers : No

Read offset correction : 96
Overread into Lead-In and Lead-Out : No
Fill up missing offset samples with silence : Yes
Delete leading and trailing silent blocks : No
Null samples used in CRC calculations : Yes
Used interface : Native Win32 interface for Win NT & 2000

Used output format : User Defined Encoder
Selected bitrate : 32 kBit/s
Quality : High
Add ID3 tag : No
Command line compressor : C:\Program Files\Exact Audio Copy\Flac\flac.exe
Additional command line options : -6 -V %s


TOC of the extracted CD

Track | Start | Length | Start sector | End sector
---------------------------------------------------------
1 | 0:00.37 | 1:46.23 | 37 | 8009
2 | 1:46.60 | 4:16.15 | 8010 | 27224
3 | 6:03.00 | 4:41.00 | 27225 | 48299
4 | 10:44.00 | 4:08.00 | 48300 | 66899
5 | 14:52.00 | 5:37.00 | 66900 | 92174
6 | 20:29.00 | 4:10.00 | 92175 | 110924
7 | 24:39.00 | 4:06.00 | 110925 | 129374
8 | 28:45.00 | 3:54.00 | 129375 | 146924
9 | 32:39.00 | 4:28.00 | 146925 | 167024
10 | 37:07.00 | 3:18.00 | 167025 | 181874
11 | 40:25.00 | 5:50.42 | 181875 | 208166
12 | 46:15.42 | 4:05.18 | 208167 | 226559


Range status and errors

Selected range

Filename D:\Музыка\Lossless\Capricorn - Inferno (1995) (Japan)\Capricorn - Inferno (Japan).wav

Peak level 100.0 %
Range quality 99.9 %
Copy CRC C132FF70
Copy OK

No errors occurred


AccurateRip summary

Track 1 not present in database
Track 2 not present in database
Track 3 not present in database
Track 4 not present in database
Track 5 not present in database
Track 6 not present in database
Track 7 not present in database
Track 8 not present in database
Track 9 not present in database
Track 10 not present in database
Track 11 not present in database
Track 12 not present in database

None of the tracks are present in the AccurateRip database

End of status report

CUE
REM GENRE "Power/Speed Metal"
REM DATE 1995
REM DISCID AA0BCC0C
REM COMMENT "ExactAudioCopy v0.99pb5"
PERFORMER "Capricorn"
TITLE "Inferno (Japan)"
FILE "Capricorn - Inferno (Japan).flac" WAVE
TRACK 01 AUDIO
TITLE "Iced Age"
PERFORMER "Capricorn"
INDEX 00 00:00:00
INDEX 01 00:00:37
TRACK 02 AUDIO
TITLE "Claws Of The Mad"
PERFORMER "Capricorn"
INDEX 01 01:46:60
TRACK 03 AUDIO
TITLE "The Wire Fence"
PERFORMER "Capricorn"
INDEX 00 06:01:66
INDEX 01 06:03:00
TRACK 04 AUDIO
TITLE "Dead Can Walk"
PERFORMER "Capricorn"
INDEX 00 10:42:61
INDEX 01 10:44:00
TRACK 05 AUDIO
TITLE "Moonstruck"
PERFORMER "Capricorn"
INDEX 00 14:51:21
INDEX 01 14:52:00
TRACK 06 AUDIO
TITLE "Iron Biter"
PERFORMER "Capricorn"
INDEX 00 20:27:43
INDEX 01 20:29:00
TRACK 07 AUDIO
TITLE "Gun For Hire"
PERFORMER "Capricorn"
INDEX 00 24:38:01
INDEX 01 24:39:00
TRACK 08 AUDIO
TITLE "A Call For Defiance"
PERFORMER "Capricorn"
INDEX 00 28:43:58
INDEX 01 28:45:00
TRACK 09 AUDIO
TITLE "You Can't Stop R'N'R"
PERFORMER "Capricorn"
INDEX 00 32:37:31
INDEX 01 32:39:00
TRACK 10 AUDIO
TITLE "Camp Blood"
PERFORMER "Capricorn"
INDEX 00 37:05:73
INDEX 01 37:07:00
TRACK 11 AUDIO
TITLE "Inferno"
PERFORMER "Capricorn"
INDEX 00 40:22:53
INDEX 01 40:25:00
TRACK 12 AUDIO
TITLE "Incredibly Ruined (Japan Bonus)"
PERFORMER "Capricorn"
INDEX 00 46:15:06
INDEX 01 46:15:42


FLAC
Covers


Top
 Profile E-mail  
 
 
PostPosted: 08 Oct 2014 
консэрваторъ
User avatar
Joined: 11 Aug 2007
Posts: 17704
Lоcаtion: Псков
Age: 46
Name: Сергей
Вельми понеже как говорится... рекс снят... :thanx:

_________________
THRASH 'EM ALL


Top
 Profile E-mail  
 
 
PostPosted: 08 Oct 2014 
Прокъмитолист
User avatar
Joined: 12 Aug 2007
Posts: 6786
Lоcаtion: Санктъ-Петербуркъ
Age: 53
Name: Олекъ
:true:

_________________
прокъметол - это музыко, от которово есть прок (ы)


Top
 Profile  
 
 
PostPosted: 08 Oct 2014 
Хиппей (support team)
User avatar
Joined: 30 Jul 2007
Posts: 119806
Lоcаtion: Киев (Kyiv, UA)
Age: 47
Name: Andrey
:thanx:

mirror: Narod l M-Cloud

Image Image Image
Image Image Image

_________________


Top
 Profile E-mail  
 
 
PostPosted: 09 Oct 2014 
Metal Collector
User avatar
Joined: 16 Nov 2008
Posts: 1364
Lоcаtion: Химки
Age: 37
Name: Андрей
Благодарствую, редчайшая весчь!


Top
 Profile E-mail  
 
 
PostPosted: 09 Oct 2014 
Хиппей (support team)
User avatar
Joined: 30 Jul 2007
Posts: 119806
Lоcаtion: Киев (Kyiv, UA)
Age: 47
Name: Andrey
Вах, какой классный альбом :true: :true: :true: Хоть и напоминает очень альбомы Антракса с Бушем =)

7+/10

_________________


Top
 Profile E-mail  
 
 
PostPosted: 09 Oct 2014 
Дежурный по КУПу
User avatar
Joined: 17 Aug 2007
Posts: 5872
Age: 52
Name: Ге
:thanx:

_________________
http://jp-mania.ru/
http://jp-tourdates.ucoz.ru/


Top
 Profile  
 
 
PostPosted: 10 Oct 2014 
Персональный статус
Joined: 19 Jul 2010
Posts: 282
Lоcаtion: Москва
Name: Вадим
На мой вкус, послабее первого.


Top
 Profile E-mail  
 
Display posts from previous:  Sort by  
Post new topic Reply to topic  [ 19 posts ] 

All times are UTC + 3 hours


Who is online

Users browsing this forum: No registered users and 3 guests


You cannot post new topics in this forum
You cannot reply to topics in this forum
You cannot edit your posts in this forum
You cannot delete your posts in this forum
You cannot post attachments in this forum

Search for:
Яндекс.Метрика
Powered by phpBB © 2000, 2002, 2005, 2007 phpBB Group