\m/ 80's metal \m/

Информационно-аналитический форум "80 см пыли" (In Search We Trust) "У нас никто никуда не спешит"
Me For You - http://me-4u.com
It is currently 06 Dec 2021

All times are UTC + 3 hours

Spoiler
Chat - temporary registration for foreign users (please leave your application here)







Post new topic Reply to topic  [ 7 posts ] 
Author Message
 
PostPosted: 23 Mar 2014 
Работнечег
User avatar
Joined: 28 Aug 2007
Posts: 6392
Lоcаtion: г. Москва
Age: 32
Name: Дима
Image

Year: 1998
Label: USA Records
Genre: Heavy/Speed Metal
Coutry: USA
Format: Flac + Log + Cue + Covers
Size: 478 Mb

Line-Up:
on Vengeance Is Mine album:
Roger DeCarlo - Guitars
Rob Conrad - Bass
Dave Hval - Drums
Rick Nolan - Vocals


on Shock The World album:
Roger DeCarlo - Guitars
Rob Conrad - Bass
Dave Hval - Drums, Vocals


Tracklist:
1. In Time / Beyond Belief 05:11
2. Bat's Breath 04:27
3. Traitors/Devil's Gone 09:02
4. Kicked in the Ass 01:58
5. Fight the Dragon 03:05
6. Broken Bones 05:40
7. About Face 06:55

8. The Awakening 06:48
9. Russian Jig 03:20
10. Mr. Potato Head 03:19
11. Cruella 03:42
12. Living Death 03:02
13. Shock the World 03:38
14. Jim Jones 04:28
15. Pushed off the Edge 05:54

LOG
Exact Audio Copy V0.99 prebeta 5 from 4. May 2009

EAC extraction logfile from 8. February 2014, 13:39

Cruella / Vengeance Is Mine/Shock The World

Used drive : PIONEER DVD-RW DVR-116D Adapter: 0 ID: 0

Read mode : Secure
Utilize accurate stream : Yes
Defeat audio cache : Yes
Make use of C2 pointers : No

Read offset correction : 96
Overread into Lead-In and Lead-Out : No
Fill up missing offset samples with silence : Yes
Delete leading and trailing silent blocks : No
Null samples used in CRC calculations : Yes
Used interface : Native Win32 interface for Win NT & 2000

Used output format : User Defined Encoder
Selected bitrate : 32 kBit/s
Quality : High
Add ID3 tag : No
Command line compressor : C:\Program Files\Exact Audio Copy\Flac\flac.exe
Additional command line options : -6 -V %s


TOC of the extracted CD

Track | Start | Length | Start sector | End sector
---------------------------------------------------------
1 | 0:00.30 | 5:11.37 | 30 | 23391
2 | 5:11.67 | 4:34.43 | 23392 | 43984
3 | 9:46.35 | 9:02.37 | 43985 | 84671
4 | 18:48.72 | 2:01.62 | 84672 | 93808
5 | 20:50.59 | 3:04.00 | 93809 | 107608
6 | 23:54.59 | 5:45.25 | 107609 | 133508
7 | 29:40.09 | 7:02.20 | 133509 | 165178
8 | 36:42.29 | 6:47.48 | 165179 | 195751
9 | 43:30.02 | 3:20.18 | 195752 | 210769
10 | 46:50.20 | 3:19.24 | 210770 | 225718
11 | 50:09.44 | 3:42.23 | 225719 | 242391
12 | 53:51.67 | 3:02.15 | 242392 | 256056
13 | 56:54.07 | 3:38.11 | 256057 | 272417
14 | 60:32.18 | 4:27.49 | 272418 | 292491
15 | 64:59.67 | 5:59.17 | 292492 | 319433


Range status and errors

Selected range

Filename D:\Музыка\Lossless\Cruella - Vengeance Is Mine_ Shock The World (Reissue In 1998)\Cruella - Vengeance Is Mine Shock The World.wav

Peak level 99.6 %
Range quality 100.0 %
Copy CRC 433ECF3D
Copy OK

No errors occurred


AccurateRip summary

Track 1 not present in database
Track 2 not present in database
Track 3 not present in database
Track 4 not present in database
Track 5 not present in database
Track 6 not present in database
Track 7 not present in database
Track 8 not present in database
Track 9 not present in database
Track 10 not present in database
Track 11 not present in database
Track 12 not present in database
Track 13 not present in database
Track 14 not present in database
Track 15 not present in database

None of the tracks are present in the AccurateRip database

End of status report

CUE
REM GENRE "Heavy Metal"
REM DATE 1998
REM DISCID A810A30F
REM COMMENT "ExactAudioCopy v0.99pb5"
PERFORMER "Cruella"
TITLE "Vengeance Is Mine/Shock The World"
FILE "Cruella - Vengeance Is Mine Shock The World.flac" WAVE
TRACK 01 AUDIO
TITLE "In Time/Beyond Belief"
PERFORMER "Cruella"
INDEX 00 00:00:00
INDEX 01 00:00:30
TRACK 02 AUDIO
TITLE "Bat's Breath"
PERFORMER "Cruella"
INDEX 01 05:11:67
TRACK 03 AUDIO
TITLE "Traitors/Devil's Gone"
PERFORMER "Cruella"
INDEX 01 09:46:35
TRACK 04 AUDIO
TITLE "Kicked In The Ass"
PERFORMER "Cruella"
INDEX 01 18:48:72
TRACK 05 AUDIO
TITLE "Fight The Dragon"
PERFORMER "Cruella"
INDEX 01 20:50:59
TRACK 06 AUDIO
TITLE "Broken Bones"
PERFORMER "Cruella"
INDEX 01 23:54:59
TRACK 07 AUDIO
TITLE "About Face"
PERFORMER "Cruella"
INDEX 01 29:40:09
TRACK 08 AUDIO
TITLE "The Awakening"
PERFORMER "Cruella"
INDEX 01 36:42:29
TRACK 09 AUDIO
TITLE "Russian Jig"
PERFORMER "Cruella"
INDEX 01 43:30:02
TRACK 10 AUDIO
TITLE "Mr. Potato Head"
PERFORMER "Cruella"
INDEX 01 46:50:20
TRACK 11 AUDIO
TITLE "Cruella"
PERFORMER "Cruella"
INDEX 01 50:09:44
TRACK 12 AUDIO
TITLE "Living Death"
PERFORMER "Cruella"
INDEX 01 53:51:67
TRACK 13 AUDIO
TITLE "Shock The World"
PERFORMER "Cruella"
INDEX 01 56:54:07
TRACK 14 AUDIO
TITLE "Jim Jones"
PERFORMER "Cruella"
INDEX 01 60:32:18
TRACK 15 AUDIO
TITLE "Pushed Off The Edge"
PERFORMER "Cruella"
INDEX 01 64:59:67

Spectrum
Image
Image


Yadisc

Добротные альбомы, второй звучит пожестче)

phpBB [youtube]

phpBB [youtube]


Top
 Profile E-mail  
 
 
PostPosted: 23 Mar 2014 
Хиппей (support team)
User avatar
Joined: 30 Jul 2007
Posts: 123253
Lоcаtion: Киев (Kyiv, UA)
Age: 48
Name: Andrey
:thanx:

mirror: Narod l M-Cloud

_________________


Top
 Profile E-mail  
 
 
PostPosted: 23 Mar 2014 
\m/ 80 см сала \m/
User avatar
Joined: 12 Mar 2012
Posts: 2602
Age: 28
Name: Nick
:thanx:

mirrors:

Narod | rusfolder

_________________
1990 AUROPHON BRAINSTORM (Germany) - lossless
1994 MAUSOLEUM CLASSIX (Belgium-Germany) - lossless
1998 VA - GRIM HARVEST - Complete Metal Massacre Volumes I-XII


Top
 Profile  
 
 
PostPosted: 23 Mar 2014 
спирт 100%
User avatar
Joined: 22 Sep 2008
Posts: 4633
Age: 50
Name: Саня
Дим,Спасибо! :thanx:


Top
 Profile  
 
 
PostPosted: 24 Mar 2014 
Генеральный thrasher
User avatar
Joined: 03 Oct 2008
Posts: 3751
Lоcаtion: Ханты-Мансийский АО
Age: 46
Name: Сергей
Весьма добротные!Спасибо,Димка!Отличная группёшка!


Top
 Profile  
 
 
PostPosted: 24 Mar 2014 
Прокъмитолист
User avatar
Joined: 12 Aug 2007
Posts: 6878
Lоcаtion: Санктъ-Петербуркъ
Age: 54
Name: Олекъ
спасибо! :thanx:

_________________
прокъметол - это музыко, от которово есть прок (ы)


Top
 Profile  
 
 
PostPosted: 25 Mar 2014 
Alive Again
User avatar
Joined: 17 Dec 2008
Posts: 4750
Lоcаtion: Курск Воронеж Оскол
Age: 47
Name: Дмитрий
:thanx:


Top
 Profile E-mail  
 
Display posts from previous:  Sort by  
Post new topic Reply to topic  [ 7 posts ] 

All times are UTC + 3 hours


Who is online

Users browsing this forum: No registered users and 1 guest


You cannot post new topics in this forum
You cannot reply to topics in this forum
You cannot edit your posts in this forum
You cannot delete your posts in this forum

Search for:
Яндекс.Метрика
Powered by phpBB © 2000, 2002, 2005, 2007 phpBB Group