\m/ 80's metal \m/

Информационно-аналитический форум "80 см пыли" (In Search We Trust) "У нас никто никуда не спешит"
Me For You - http://me-4u.com
It is currently 28 Jan 2021

All times are UTC + 3 hours

Spoiler
Chat - temporary registration for foreign users (please leave your application here)







Post new topic Reply to topic  [ 6 posts ] 
Author Message
 
PostPosted: 20 Dec 2013 
Генеральный thrasher
User avatar
Joined: 03 Oct 2008
Posts: 3751
Lоcаtion: Ханты-Мансийский АО
Age: 45
Name: Сергей
Image

Year:1997
Style:Thrash Metal
Country:Germany
Audio:Flac+Cue+Log+Scans
Size:447Mb
Source:my CD
Label:High Gain Records

Line-Up:
Guido Krämer - vocals
Doug Piercy - guitars
Ingo Farrano - bass
Peter "Lala" Adamowicz - drums

Tracklist:
01. Impostor 04:04
02. Citizen Streetkid 05:26
03. Animal Farm 03:45
04. Frozen By Heat 03:13
05. Lies Of Life 04:40
06. Listen 03:46
07. Antarctia 05:15
08. Gimme 5 03:35
09. Chemical Youthkill 03:56
10. Alkoholidays 05:01
11. The Bitter Point 04:05
12. Hate In Cold Eyes 04:22
13. Leave 'Em Alone 04:37

"Cue"
REM GENRE "Thrash Metal"
REM DATE 1997
REM DISCID AF0D2D0D
REM COMMENT "ExactAudioCopy v0.99pb5"
PERFORMER "The Company"
TITLE "Frozen By Heat"
FILE "The Company - Frozen By Heat.flac" WAVE
TRACK 01 AUDIO
TITLE "Impostor"
PERFORMER "The Company"
INDEX 01 00:00:00
TRACK 02 AUDIO
TITLE "Citizen Streetkid"
PERFORMER "The Company"
INDEX 00 04:04:19
INDEX 01 04:06:19
TRACK 03 AUDIO
TITLE "Animal Farm"
PERFORMER "The Company"
INDEX 00 09:32:73
INDEX 01 09:34:73
TRACK 04 AUDIO
TITLE "Frozen By Heat"
PERFORMER "The Company"
INDEX 00 13:20:56
INDEX 01 13:22:56
TRACK 05 AUDIO
TITLE "Lies Of Life"
PERFORMER "The Company"
INDEX 00 16:36:18
INDEX 01 16:38:18
TRACK 06 AUDIO
TITLE "Listen"
PERFORMER "The Company"
INDEX 00 21:18:42
INDEX 01 21:20:42
TRACK 07 AUDIO
TITLE "Antarctica"
PERFORMER "The Company"
INDEX 00 25:07:19
INDEX 01 25:09:19
TRACK 08 AUDIO
TITLE "Gimme 5"
PERFORMER "The Company"
INDEX 00 30:24:47
INDEX 01 30:26:47
TRACK 09 AUDIO
TITLE "Chemical Youthkill"
PERFORMER "The Company"
INDEX 00 34:02:27
INDEX 01 34:04:27
TRACK 10 AUDIO
TITLE "Alcoholidays"
PERFORMER "The Company"
INDEX 00 38:00:37
INDEX 01 38:02:37
TRACK 11 AUDIO
TITLE "The Bitter Point"
PERFORMER "The Company"
INDEX 00 43:03:66
INDEX 01 43:05:66
TRACK 12 AUDIO
TITLE "Hate In Cold Eyes"
PERFORMER "The Company"
INDEX 00 47:11:59
INDEX 01 47:13:59
TRACK 13 AUDIO
TITLE "Leave 'Em Alone"
PERFORMER "The Company"
INDEX 01 51:36:26

"Log"
Exact Audio Copy V0.99 prebeta 5 from 4. May 2009

Отчёт EAC об извлечении, выполненном 17. декабря 2013, 16:55

The Company / Frozen By Heat

Дисковод: MATSHITADVD-RAM UJ8A0AS Adapter: 0 ID: 1

Режим чтения : Достоверность
Использование точного потока : Да
Отключение кэша аудио : Да
Использование указателей C2 : Нет

Коррекция смещения при чтении : 102
Способность читать области Lead-in и Lead-out : Нет
Заполнение пропущенных сэмплов тишиной : Да
Удаление блоков с тишиной в начале и конце : Нет
При вычислениях CRC использовались нулевые сэмплы : Да
Интерфейс : Встроенный Win32-интерфейс для Win NT/2000

Выходной формат : Пользовательский кодировщик
Выбранный битрейт : 1024 kBit/s
Качество : Высокий
Добавление ID3-тэга : Нет
Утилита сжатия : C:\Program Files\Exact Audio Copy\FLAC\FLAC.EXE
Дополнительные параметры : -6 -V -T "ARTIST=%a" -T "TITLE=%t" -T "ALBUM=%g" -T "DATE=%y" -T "TRACKNUMBER=%n" -T "GENRE=%m" -T "COMMENT=%e" %s -o %d


TOC извлечённого CD

Трек | Старт | Длительность | Начальный сектор | Конечный сектор
---------------------------------------------------------------------
1 | 0:00.00 | 4:06.19 | 0 | 18468
2 | 4:06.19 | 5:28.54 | 18469 | 43122
3 | 9:34.73 | 3:47.58 | 43123 | 60205
4 | 13:22.56 | 3:15.37 | 60206 | 74867
5 | 16:38.18 | 4:42.24 | 74868 | 96041
6 | 21:20.42 | 3:48.52 | 96042 | 113193
7 | 25:09.19 | 5:17.28 | 113194 | 136996
8 | 30:26.47 | 3:37.55 | 136997 | 153326
9 | 34:04.27 | 3:58.10 | 153327 | 171186
10 | 38:02.37 | 5:03.29 | 171187 | 193940
11 | 43:05.66 | 4:07.68 | 193941 | 212533
12 | 47:13.59 | 4:22.42 | 212534 | 232225
13 | 51:36.26 | 4:37.37 | 232226 | 253037


Характеристики диапазона извлечения и сообщения об ошибках

Выбранный диапазон

Имя файла C:\Users\эксперт\Music\The Company - Frozen By Heat.wav

Пиковый уровень 100.0 %
Качество диапазона 100.0 %
CRC копии 5BC16FA9
Копирование... OK

Ошибок не произошло


AccurateRip: сводка

Трек 1 точное извлечение (доверие 1) [20C781AE]
Трек 2 точное извлечение (доверие 1) [0AC96AD7]
Трек 3 точное извлечение (доверие 1) [029F55A6]
Трек 4 точное извлечение (доверие 1) [001C4A7E]
Трек 5 точное извлечение (доверие 1) [0658747F]
Трек 6 точное извлечение (доверие 1) [A62B99D0]
Трек 7 точное извлечение (доверие 1) [6D4DF05B]
Трек 8 точное извлечение (доверие 1) [A5D8E604]
Трек 9 точное извлечение (доверие 1) [42C284CF]
Трек 10 точное извлечение (доверие 1) [CB418016]
Трек 11 точное извлечение (доверие 1) [753ED6C7]
Трек 12 точное извлечение (доверие 1) [953A1CF5]
Трек 13 точное извлечение (доверие 1) [8820B366]

Все треки извлечены точно

Конец отчёта


Frozen By Heat


Top
 Profile  
 
 
PostPosted: 20 Dec 2013 
Прокъмитолист
User avatar
Joined: 12 Aug 2007
Posts: 6795
Lоcаtion: Санктъ-Петербуркъ
Age: 53
Name: Олекъ
спасибо, Серёг :thanx:

_________________
прокъметол - это музыко, от которово есть прок (ы)


Top
 Profile  
 
 
PostPosted: 20 Dec 2013 
Генеральный thrasher
User avatar
Joined: 03 Oct 2008
Posts: 3751
Lоcаtion: Ханты-Мансийский АО
Age: 45
Name: Сергей
спасибо, Серёг :thanx:


Пожалуйста,Олег!На мой взгляд - это лучший их релиз... :true:


Top
 Profile  
 
 
PostPosted: 21 Dec 2013 
Хиппей (support team)
User avatar
Joined: 30 Jul 2007
Posts: 119981
Lоcаtion: Киев (Kyiv, UA)
Age: 47
Name: Andrey
:thanx:

mirror: Narod l M-Cloud

_________________


Top
 Profile E-mail  
 
 
PostPosted: 03 Jan 2014 
Хиппей (support team)
User avatar
Joined: 30 Jul 2007
Posts: 119981
Lоcаtion: Киев (Kyiv, UA)
Age: 47
Name: Andrey
thorbeorn wrote:
03. Animal Farm 03:45

Это случайно не кавер на Grave Digger? :oops:

А вообще, с первой прослушки я альбом забраковал :fingal:
Типа невнятный трэш в духе нетрэшевых 90-х с уже не труъ-саундом и всё такое прочее. Но сейчас в четвёртый раз слушаю и нравится всё больше и больше.
Странно, но вторая половина альбома намного круче получилась :vic: :true:

6/10
зы. Перенёс все же топик из буквы Т в С :pardon:

_________________


Top
 Profile E-mail  
 
 
PostPosted: 04 Jan 2014 
Персональный статус
User avatar
Joined: 04 Mar 2012
Posts: 239
Lоcаtion: Саратов
Name: Василий
:thanx:


Top
 Profile E-mail  
 
Display posts from previous:  Sort by  
Post new topic Reply to topic  [ 6 posts ] 

All times are UTC + 3 hours


Who is online

Users browsing this forum: No registered users and 1 guest


You cannot post new topics in this forum
You cannot reply to topics in this forum
You cannot edit your posts in this forum
You cannot delete your posts in this forum
You cannot post attachments in this forum

Search for:
Яндекс.Метрика
cron
Powered by phpBB © 2000, 2002, 2005, 2007 phpBB Group