\m/ 80's metal \m/

Информационно-аналитический форум "80 см пыли" (In Search We Trust) "У нас никто никуда не спешит"
Me For You - http://me-4u.com
It is currently 27 Jan 2021

All times are UTC + 3 hours

Spoiler
Chat - temporary registration for foreign users (please leave your application here)







Post new topic Reply to topic  [ 5 posts ] 
Author Message
 
PostPosted: 26 Nov 2013 
Генеральный thrasher
User avatar
Joined: 03 Oct 2008
Posts: 3751
Lоcаtion: Ханты-Мансийский АО
Age: 45
Name: Сергей
Image

Year:1997
Style:Thrash Metal
Country:Japan
Audio:Flac+Cue+Log+Scans
Size:391Mb
Source:my CD
Label:Roadrunner Records

Line-Up:
Taka Hatori - vocal
Ryo Murayama - guitars
Shu Hattori - bass
Suguru Kobayashi - drums

Tracklist:
01. Enough Is Enough 03:38
02. Lucky Dragon 03:43
03. Colours 04:02
04. And It Goes On 04:16
05. Words Of Illusions 04:15
06. Impure 03:02
07. March Of The Final Decade 04:05
08. Blind Yourself 04:18

"Cue"
REM GENRE "Thrash Metal"
REM DATE 1997
REM DISCID 69075C08
REM COMMENT "ExactAudioCopy v0.99pb5"
PERFORMER "CASBAH"
TITLE "Bold Statement"
FILE "CASBAH - Bold Statement.flac" WAVE
TRACK 01 AUDIO
TITLE "Enough Is Enough"
PERFORMER "CASBAH"
INDEX 01 00:00:00
TRACK 02 AUDIO
TITLE "Lucky Dragon"
PERFORMER "CASBAH"
INDEX 01 03:38:60
TRACK 03 AUDIO
TITLE "Colors"
PERFORMER "CASBAH"
INDEX 01 07:22:03
TRACK 04 AUDIO
TITLE "And It Goes On"
PERFORMER "CASBAH"
INDEX 01 11:24:58
TRACK 05 AUDIO
TITLE "Words Of Illusions"
PERFORMER "CASBAH"
INDEX 01 15:41:48
TRACK 06 AUDIO
TITLE "Impure"
PERFORMER "CASBAH"
INDEX 01 19:57:33
TRACK 07 AUDIO
TITLE "March Of The Final Decade"
PERFORMER "CASBAH"
INDEX 00 22:59:35
INDEX 01 23:00:70
TRACK 08 AUDIO
TITLE "Blind Yourself"
PERFORMER "CASBAH"
INDEX 01 27:06:25

"Log"
Exact Audio Copy V0.99 prebeta 5 from 4. May 2009

Отчёт EAC об извлечении, выполненном 21. октября 2013, 11:19

CASBAH / Bold Statement

Дисковод: MATSHITADVD-RAM UJ8A0AS Adapter: 0 ID: 1

Режим чтения : Достоверность
Использование точного потока : Да
Отключение кэша аудио : Да
Использование указателей C2 : Нет

Коррекция смещения при чтении : 102
Способность читать области Lead-in и Lead-out : Нет
Заполнение пропущенных сэмплов тишиной : Да
Удаление блоков с тишиной в начале и конце : Нет
При вычислениях CRC использовались нулевые сэмплы : Да
Интерфейс : Встроенный Win32-интерфейс для Win NT/2000

Выходной формат : Пользовательский кодировщик
Выбранный битрейт : 1024 kBit/s
Качество : Высокий
Добавление ID3-тэга : Нет
Утилита сжатия : C:\Program Files\Exact Audio Copy\FLAC\FLAC.EXE
Дополнительные параметры : -6 -V -T "ARTIST=%a" -T "TITLE=%t" -T "ALBUM=%g" -T "DATE=%y" -T "TRACKNUMBER=%n" -T "GENRE=%m" -T "COMMENT=%e" %s -o %d


TOC извлечённого CD

Трек | Старт | Длительность | Начальный сектор | Конечный сектор
---------------------------------------------------------------------
1 | 0:00.00 | 3:38.60 | 0 | 16409
2 | 3:38.60 | 3:43.18 | 16410 | 33152
3 | 7:22.03 | 4:02.55 | 33153 | 51357
4 | 11:24.58 | 4:16.65 | 51358 | 70622
5 | 15:41.48 | 4:15.60 | 70623 | 89807
6 | 19:57.33 | 3:03.37 | 89808 | 103569
7 | 23:00.70 | 4:05.30 | 103570 | 121974
8 | 27:06.25 | 4:18.45 | 121975 | 141369


Характеристики диапазона извлечения и сообщения об ошибках

Выбранный диапазон

Имя файла C:\Users\эксперт\Music\CASBAH - Bold Statement.wav

Пиковый уровень 100.0 %
Качество диапазона 100.0 %
CRC копии 8D81D4E9
Копирование... OK

Ошибок не произошло


AccurateRip: сводка

Трек 1 нет в базе данных
Трек 2 нет в базе данных
Трек 3 нет в базе данных
Трек 4 нет в базе данных
Трек 5 нет в базе данных
Трек 6 нет в базе данных
Трек 7 нет в базе данных
Трек 8 нет в базе данных

Ни одного трека нет в базе AccurateRip

Конец отчёта


Bold Statement


Top
 Profile  
 
 
PostPosted: 26 Nov 2013 
Прокъмитолист
User avatar
Joined: 12 Aug 2007
Posts: 6795
Lоcаtion: Санктъ-Петербуркъ
Age: 53
Name: Олекъ
спасибо, Серёг :thanx:

_________________
прокъметол - это музыко, от которово есть прок (ы)


Top
 Profile  
 
 
PostPosted: 26 Nov 2013 
Хиппей (support team)
User avatar
Joined: 30 Jul 2007
Posts: 119963
Lоcаtion: Киев (Kyiv, UA)
Age: 47
Name: Andrey
:thanx:

mirror: Narod l M-Cloud

_________________


Top
 Profile E-mail  
 
 
PostPosted: 26 Nov 2013 
Alive Again
User avatar
Joined: 17 Dec 2008
Posts: 4750
Lоcаtion: Курск Воронеж Оскол
Age: 46
Name: Дмитрий
:thanx:


Top
 Profile E-mail  
 
 
PostPosted: 27 Nov 2013 
ТрэшЭрос
User avatar
Joined: 18 Jul 2011
Posts: 2307
Lоcаtion: Гулькевичи
Age: 46
Name: Александр
Япона мама, я фшоки! :crazy: Оказываеццо, ента банда лабает тресх-митол аж с 1983(!) года...
Спасибо тяжёлое, Серёга!!! :true: :true: :true:

_________________
Thrash no trash!!!


Top
 Profile E-mail  
 
Display posts from previous:  Sort by  
Post new topic Reply to topic  [ 5 posts ] 

All times are UTC + 3 hours


Who is online

Users browsing this forum: No registered users and 4 guests


You cannot post new topics in this forum
You cannot reply to topics in this forum
You cannot edit your posts in this forum
You cannot delete your posts in this forum
You cannot post attachments in this forum

Search for:
Яндекс.Метрика
Powered by phpBB © 2000, 2002, 2005, 2007 phpBB Group