\m/ 80's metal \m/

Информационно-аналитический форум "80 см пыли" (In Search We Trust) "У нас никто никуда не спешит"
Me For You - http://me-4u.com
It is currently 28 Jan 2021

All times are UTC + 3 hours

Spoiler
Chat - temporary registration for foreign users (please leave your application here)







Post new topic Reply to topic  [ 3 posts ] 
Author Message
 
PostPosted: 28 Sep 2013 
Генеральный thrasher
User avatar
Joined: 03 Oct 2008
Posts: 3751
Lоcаtion: Ханты-Мансийский АО
Age: 45
Name: Сергей
Image

Year:1993
Style:Thrash Metal
Country:Belgium
Audio:Flac+Cue+Log+Scans
Size:137Mb
Source:myCD
Label:Electrip

Tracklist:
House of Despair (Spoken Word Mix) 06:35
House of Despair (Yell Mix) 06:05
Hotdog & Beercanhill (live) 03:08
Brick by Brick (live) 02:45

"Cue"
REM GENRE "Thrash Metal"
REM DATE 1993
REM DISCID 3B045D04
REM COMMENT "ExactAudioCopy v0.99pb5"
PERFORMER "Catalepsy"
TITLE "House Of Despair"
FILE "Catalepsy - House Of Despair.flac" WAVE
TRACK 01 AUDIO
TITLE "House of Despair (spoken word mix)"
PERFORMER "Catalepsy"
INDEX 00 00:00:00
INDEX 01 00:00:33
TRACK 02 AUDIO
TITLE "House of Despair (yell mix)"
PERFORMER "Catalepsy"
INDEX 00 06:35:45
INDEX 01 06:37:18
TRACK 03 AUDIO
TITLE "Hotdog & Beercanhill"
PERFORMER "Catalepsy"
INDEX 01 12:43:13
TRACK 04 AUDIO
TITLE "Brick By Brick"
PERFORMER "Catalepsy"
INDEX 00 15:51:40
INDEX 01 15:52:03

"Log"
Exact Audio Copy V0.99 prebeta 5 from 4. May 2009

Отчёт EAC об извлечении, выполненном 28. сентября 2013, 14:41

Catalepsy / House Of Despair

Дисковод: MATSHITADVD-RAM UJ8A0AS Adapter: 0 ID: 1

Режим чтения : Достоверность
Использование точного потока : Да
Отключение кэша аудио : Да
Использование указателей C2 : Нет

Коррекция смещения при чтении : 102
Способность читать области Lead-in и Lead-out : Нет
Заполнение пропущенных сэмплов тишиной : Да
Удаление блоков с тишиной в начале и конце : Нет
При вычислениях CRC использовались нулевые сэмплы : Да
Интерфейс : Встроенный Win32-интерфейс для Win NT/2000

Выходной формат : Пользовательский кодировщик
Выбранный битрейт : 1024 kBit/s
Качество : Высокий
Добавление ID3-тэга : Нет
Утилита сжатия : C:\Program Files\Exact Audio Copy\FLAC\FLAC.EXE
Дополнительные параметры : -6 -V -T "ARTIST=%a" -T "TITLE=%t" -T "ALBUM=%g" -T "DATE=%y" -T "TRACKNUMBER=%n" -T "GENRE=%m" -T "COMMENT=%e" %s -o %d


TOC извлечённого CD

Трек | Старт | Длительность | Начальный сектор | Конечный сектор
---------------------------------------------------------------------
1 | 0:00.33 | 6:36.60 | 33 | 29792
2 | 6:37.18 | 6:05.70 | 29793 | 57237
3 | 12:43.13 | 3:08.65 | 57238 | 71402
4 | 15:52.03 | 2:45.22 | 71403 | 83799


Характеристики диапазона извлечения и сообщения об ошибках

Выбранный диапазон

Имя файла C:\Users\эксперт\Music\Catalepsy - House Of Despair.wav

Пиковый уровень 97.7 %
Качество диапазона 100.0 %
CRC копии 8F5CE7E2
Копирование... OK

Ошибок не произошло


AccurateRip: сводка

Трек 1 нет в базе данных
Трек 2 нет в базе данных
Трек 3 нет в базе данных
Трек 4 нет в базе данных

Ни одного трека нет в базе AccurateRip

Конец отчёта


House Of Despair


Top
 Profile  
 
 
PostPosted: 29 Sep 2013 
Работнечег
User avatar
Joined: 28 Aug 2007
Posts: 6363
Lоcаtion: г. Москва
Age: 31
Name: Дима
Спасибо! Не слушал эту группу, буду знакомиться! :thanx:


Top
 Profile E-mail  
 
 
PostPosted: 30 Sep 2013 
Хиппей (support team)
User avatar
Joined: 30 Jul 2007
Posts: 119981
Lоcаtion: Киев (Kyiv, UA)
Age: 47
Name: Andrey
:thanx:

mirror: Narod

Более чем знаком с творчеством группы, но этого миника не слушал. Вроде :scratch:

_________________


Top
 Profile E-mail  
 
Display posts from previous:  Sort by  
Post new topic Reply to topic  [ 3 posts ] 

All times are UTC + 3 hours


Who is online

Users browsing this forum: No registered users and 1 guest


You cannot post new topics in this forum
You cannot reply to topics in this forum
You cannot edit your posts in this forum
You cannot delete your posts in this forum
You cannot post attachments in this forum

Search for:
Яндекс.Метрика
Powered by phpBB © 2000, 2002, 2005, 2007 phpBB Group