\m/ 80's metal \m/

Информационно-аналитический форум "80 см пыли" (In Search We Trust) "У нас никто никуда не спешит"
Me For You - http://me-4u.com
It is currently 06 Dec 2021

All times are UTC + 3 hours

Spoiler
Chat - temporary registration for foreign users (please leave your application here)







Post new topic Reply to topic  [ 4 posts ] 
Author Message
 
PostPosted: 28 Jun 2013 
Генеральный thrasher
User avatar
Joined: 03 Oct 2008
Posts: 3751
Lоcаtion: Ханты-Мансийский АО
Age: 46
Name: Сергей
Image

Year:1992
Style:Crossover/Thrash Metal
Country:U.K.
Audio:Flac+Cue+Log+Scans
Size:374Mb
Source:my CD
Label:Under One Flag

Line-Up:
Tony Warburton – guitar
Gregg Fellows – guitar
Frank Healy – bass
Simon Forrest – vocals
Kev Frost – drums

Tracklist:
01. Death Erotica 01:04
02. World Machine 05:09
03. Clarissa 05:44
04. Haunted Eyes 05:41
05. Mind Within Mine 04:28
06. Angel's Kiss 04:38
07. Still In Mind 01:44
08. The Raft Of Medusa 06:16
09. Splintered Wings 05:44
10. Creator Of Outcasts 05:50
11. Never Again (Discharge Cover) 02:35
12. Too Drunk To Funk 02:58
13. Burning 01:10
14. Living After Midnight (Judas Priest Cover) 03:54

"Cue"
REM GENRE "Thrash Metal"
REM DATE 1992
REM DISCID B20D6C0E
REM COMMENT "ExactAudioCopy v0.99pb5"
PERFORMER "Cerebral Fix"
TITLE "Death Erotica"
FILE "Cerebral Fix - Death Erotica.flac" WAVE
TRACK 01 AUDIO
TITLE "Death Erotica"
PERFORMER "Cerebral Fix"
INDEX 00 00:00:00
INDEX 01 00:00:32
TRACK 02 AUDIO
TITLE "World Machine"
PERFORMER "Cerebral Fix"
INDEX 01 01:04:65
TRACK 03 AUDIO
TITLE "Clarissa"
PERFORMER "Cerebral Fix"
INDEX 00 06:14:05
INDEX 01 06:14:65
TRACK 04 AUDIO
TITLE "Haunted Eyes"
PERFORMER "Cerebral Fix"
INDEX 00 11:59:27
INDEX 01 11:59:72
TRACK 05 AUDIO
TITLE "Mind within Mine"
PERFORMER "Cerebral Fix"
INDEX 00 17:41:57
INDEX 01 17:42:67
TRACK 06 AUDIO
TITLE "Angel's Kiss"
PERFORMER "Cerebral Fix"
INDEX 00 22:11:52
INDEX 01 22:13:62
TRACK 07 AUDIO
TITLE "Still in Mind"
PERFORMER "Cerebral Fix"
INDEX 00 26:52:60
INDEX 01 26:53:07
TRACK 08 AUDIO
TITLE "The Raft of Medusa"
PERFORMER "Cerebral Fix"
INDEX 01 28:36:55
TRACK 09 AUDIO
TITLE "Splintered Wings"
PERFORMER "Cerebral Fix"
INDEX 00 34:53:00
INDEX 01 34:54:32
TRACK 10 AUDIO
TITLE "Creator of Outcasts"
PERFORMER "Cerebral Fix"
INDEX 00 40:39:02
INDEX 01 40:40:15
TRACK 11 AUDIO
TITLE "Never Again"
PERFORMER "Cerebral Fix"
INDEX 00 46:30:67
INDEX 01 46:32:37
TRACK 12 AUDIO
TITLE "Too Drunk to Funk"
PERFORMER "Cerebral Fix"
INDEX 00 49:08:15
INDEX 01 49:09:62
TRACK 13 AUDIO
TITLE "Burning"
PERFORMER "Cerebral Fix"
INDEX 00 52:07:67
INDEX 01 52:09:35
TRACK 14 AUDIO
TITLE "Livin' after Midnight"
PERFORMER "Cerebral Fix"
INDEX 00 53:19:57
INDEX 01 53:22:10

"Log"
Exact Audio Copy V0.99 prebeta 5 from 4. May 2009

Отчёт EAC об извлечении, выполненном 20. июня 2013, 14:58

Cerebral Fix / Death Erotica

Дисковод: MATSHITADVD-RAM UJ8A0AS Adapter: 0 ID: 1

Режим чтения : Достоверность
Использование точного потока : Да
Отключение кэша аудио : Да
Использование указателей C2 : Нет

Коррекция смещения при чтении : 102
Способность читать области Lead-in и Lead-out : Нет
Заполнение пропущенных сэмплов тишиной : Да
Удаление блоков с тишиной в начале и конце : Нет
При вычислениях CRC использовались нулевые сэмплы : Да
Интерфейс : Встроенный Win32-интерфейс для Win NT/2000

Выходной формат : Пользовательский кодировщик
Выбранный битрейт : 1024 kBit/s
Качество : Высокий
Добавление ID3-тэга : Нет
Утилита сжатия : C:\Program Files\Exact Audio Copy\FLAC\FLAC.EXE
Дополнительные параметры : -6 -V -T "ARTIST=%a" -T "TITLE=%t" -T "ALBUM=%g" -T "DATE=%y" -T "TRACKNUMBER=%n" -T "GENRE=%m" -T "COMMENT=%e" %s -o %d


TOC извлечённого CD

Трек | Старт | Длительность | Начальный сектор | Конечный сектор
---------------------------------------------------------------------
1 | 0:00.32 | 1:04.33 | 32 | 4864
2 | 1:04.65 | 5:10.00 | 4865 | 28114
3 | 6:14.65 | 5:45.07 | 28115 | 53996
4 | 11:59.72 | 5:42.70 | 53997 | 79716
5 | 17:42.67 | 4:30.70 | 79717 | 100036
6 | 22:13.62 | 4:39.20 | 100037 | 120981
7 | 26:53.07 | 1:43.48 | 120982 | 128754
8 | 28:36.55 | 6:17.52 | 128755 | 157081
9 | 34:54.32 | 5:45.58 | 157082 | 183014
10 | 40:40.15 | 5:52.22 | 183015 | 209436
11 | 46:32.37 | 2:37.25 | 209437 | 221236
12 | 49:09.62 | 2:59.48 | 221237 | 234709
13 | 52:09.35 | 1:12.50 | 234710 | 240159
14 | 53:22.10 | 3:54.52 | 240160 | 257761


Характеристики диапазона извлечения и сообщения об ошибках

Выбранный диапазон

Имя файла C:\Users\эксперт\Music\Cerebral Fix - Death Erotica.wav

Пиковый уровень 81.9 %
Качество диапазона 100.0 %
CRC копии 4CE747FF
Копирование... OK

Ошибок не произошло


AccurateRip: сводка

Трек 1 точное извлечение (доверие 1) [E79036CA]
Трек 2 точное извлечение (доверие 1) [415D0AF7]
Трек 3 точное извлечение (доверие 1) [5F11E9D8]
Трек 4 точное извлечение (доверие 1) [C1334D2C]
Трек 5 точное извлечение (доверие 1) [3210392A]
Трек 6 точное извлечение (доверие 1) [D458560A]
Трек 7 точное извлечение (доверие 1) [89DE12D9]
Трек 8 точное извлечение (доверие 1) [5193FD26]
Трек 9 точное извлечение (доверие 1) [7EB9F85E]
Трек 10 точное извлечение (доверие 1) [4819E6A7]
Трек 11 точное извлечение (доверие 1) [69038A29]
Трек 12 точное извлечение (доверие 1) [877F80E0]
Трек 13 точное извлечение (доверие 1) [82E24141]
Трек 14 точное извлечение (доверие 1) [A210F51F]

Все треки извлечены точно

Конец отчёта


Death Erotica

Список песен на заднике не совпадает с действительным порядком.Такой вот австрийский пресс! :vic:


Top
 Profile  
 
 
PostPosted: 28 Jun 2013 
дядя Миша
User avatar
Joined: 17 Oct 2008
Posts: 3633
Lоcаtion: USSR
Age: 59
Name: Khy
:true: надо бы качнуть, но вроде уже есть :thanx:


Top
 Profile  
 
 
PostPosted: 28 Jun 2013 
Хиппей (support team)
User avatar
Joined: 30 Jul 2007
Posts: 123254
Lоcаtion: Киев (Kyiv, UA)
Age: 48
Name: Andrey
:thanx:

mirror: F-Bit l Narod

_________________


Top
 Profile E-mail  
 
 
PostPosted: 28 Jun 2013 
Хиппей (support team)
User avatar
Joined: 30 Jul 2007
Posts: 123254
Lоcаtion: Киев (Kyiv, UA)
Age: 48
Name: Andrey
Хороший thrashcore, хоть уже и грувастый :pardon:

зы. А лучший трэк на альбоме это, конечно же, кавер на Пристов :dance:

_________________


Top
 Profile E-mail  
 
Display posts from previous:  Sort by  
Post new topic Reply to topic  [ 4 posts ] 

All times are UTC + 3 hours


Who is online

Users browsing this forum: No registered users and 1 guest


You cannot post new topics in this forum
You cannot reply to topics in this forum
You cannot edit your posts in this forum
You cannot delete your posts in this forum

Search for:
Яндекс.Метрика
Powered by phpBB © 2000, 2002, 2005, 2007 phpBB Group