\m/ 80's metal \m/

Информационно-аналитический форум "80 см пыли" (In Search We Trust) "У нас никто никуда не спешит"
Me For You - http://me-4u.com
It is currently 06 Dec 2021

All times are UTC + 3 hours

Spoiler
Chat - temporary registration for foreign users (please leave your application here)







Post new topic Reply to topic  [ 6 posts ] 
Author Message
 
PostPosted: 23 Dec 2012 
Работнечег
User avatar
Joined: 28 Aug 2007
Posts: 6392
Lоcаtion: г. Москва
Age: 32
Name: Дима
Image

Band: Chain Lightning
Album: Bolt From The Blue
Year: 2007
Label: ONR Records
Genre: Heavy Metal
Coutry: UK
Format: Flac + Log + Cue + Covers
Size: 305 Mb

Line-Up:
Ivan Wellington - Bass on tracks 1-7 (ex-Panik Attak)
Sam Harris - Bass on tracks 8-10
Tim Evans - Drums and Backing Vocals (Dedhed, ex-Embedded)
Jake "Lin Tremayne" Williams -Guitars and Backing Vocals (ex-Lastrovia)
Derek Hodd -Vocals (ex-Chain Reaction, ex-Karn-Age, ex-Panik Attak, ex-Cloven Hoof)


Tracklist:
1. We Are Fire 04:48
2. Lovelies 04:20
3. I Could Have Loved You 03:40
4. Heartbreak 02:42
5. Dirty Loving 03:34
6. Chain Lightning 03:07
7. Bolt from the Blue 05:57
8. Waiting 05:48
9. Some of Us 05:06
10. Harvest of Fouls 06:55

LOG
Exact Audio Copy V0.99 prebeta 5 from 4. May 2009

EAC extraction logfile from 14. December 2012, 18:05

Chain Lightning / Bolt From The Blue

Used drive : PIONEER DVD-RW DVR-116D Adapter: 0 ID: 0

Read mode : Secure
Utilize accurate stream : Yes
Defeat audio cache : Yes
Make use of C2 pointers : No

Read offset correction : 96
Overread into Lead-In and Lead-Out : No
Fill up missing offset samples with silence : Yes
Delete leading and trailing silent blocks : No
Null samples used in CRC calculations : Yes
Used interface : Native Win32 interface for Win NT & 2000

Used output format : User Defined Encoder
Selected bitrate : 32 kBit/s
Quality : High
Add ID3 tag : No
Command line compressor : C:\Program Files\Exact Audio Copy\Flac\flac.exe
Additional command line options : -6 -V %s


TOC of the extracted CD

Track | Start | Length | Start sector | End sector
---------------------------------------------------------
1 | 0:00.00 | 4:48.39 | 0 | 21638
2 | 4:48.39 | 4:20.26 | 21639 | 41164
3 | 9:08.65 | 3:40.10 | 41165 | 57674
4 | 12:49.00 | 2:42.54 | 57675 | 69878
5 | 15:31.54 | 3:34.18 | 69879 | 85946
6 | 19:05.72 | 3:07.60 | 85947 | 100031
7 | 22:13.57 | 5:57.45 | 100032 | 126851
8 | 28:11.27 | 5:48.29 | 126852 | 152980
9 | 33:59.56 | 5:06.65 | 152981 | 175995
10 | 39:06.46 | 6:55.45 | 175996 | 207165


Range status and errors

Selected range

Filename D:\Музыка\Lossless\Chain Lightning - Bolt From The Blue (2007)\Chain Lightning - Bolt From The Blue.wav

Suspicious position 0:33:37
Suspicious position 0:36:53
Suspicious position 0:44:42
Suspicious position 0:44:51
Suspicious position 0:45:12
Suspicious position 0:45:41

Peak level 100.0 %
Range quality 99.2 %
Copy CRC B6C7ADC7
Copy finished

There were errors


AccurateRip summary

Track 1 not present in database
Track 2 not present in database
Track 3 not present in database
Track 4 not present in database
Track 5 not present in database
Track 6 not present in database
Track 7 not present in database
Track 8 not present in database
Track 9 not present in database
Track 10 not present in database

None of the tracks are present in the AccurateRip database

End of status report

CUE
REM GENRE "Heavy Metal"
REM DATE 2007
REM DISCID 790ACA0A
REM COMMENT "ExactAudioCopy v0.99pb5"
PERFORMER "Chain Lightning"
TITLE "Bolt From The Blue"
FILE "Chain Lightning - Bolt From The Blue.flac" WAVE
TRACK 01 AUDIO
TITLE "We Are Fire"
PERFORMER "Chain Lightning"
FLAGS DCP
INDEX 01 00:00:00
TRACK 02 AUDIO
TITLE "Lovelies"
PERFORMER "Chain Lightning"
FLAGS DCP
INDEX 00 04:46:39
INDEX 01 04:48:39
TRACK 03 AUDIO
TITLE "I Could Have Loved You"
PERFORMER "Chain Lightning"
FLAGS DCP
INDEX 00 09:06:65
INDEX 01 09:08:65
TRACK 04 AUDIO
TITLE "Heartbreak"
PERFORMER "Chain Lightning"
FLAGS DCP
INDEX 00 12:47:00
INDEX 01 12:49:00
TRACK 05 AUDIO
TITLE "Dirty Loving"
PERFORMER "Chain Lightning"
FLAGS DCP
INDEX 00 15:29:54
INDEX 01 15:31:54
TRACK 06 AUDIO
TITLE "Chain Lightning"
PERFORMER "Chain Lightning"
FLAGS DCP
INDEX 00 19:03:72
INDEX 01 19:05:72
TRACK 07 AUDIO
TITLE "Bolt From The Blue"
PERFORMER "Chain Lightning"
FLAGS DCP
INDEX 00 22:11:59
INDEX 01 22:13:57
TRACK 08 AUDIO
TITLE "Waiting"
PERFORMER "Chain Lightning"
FLAGS DCP
INDEX 00 28:09:28
INDEX 01 28:11:27
TRACK 09 AUDIO
TITLE "Some Of Us"
PERFORMER "Chain Lightning"
FLAGS DCP
INDEX 00 33:57:57
INDEX 01 33:59:56
TRACK 10 AUDIO
TITLE "Harvest Of Fouls"
PERFORMER "Chain Lightning"
FLAGS DCP
INDEX 00 39:04:46
INDEX 01 39:06:46

Spectrum
Image
Image
Image


phpBB [youtube]


Narod.Ru

Само по себе издание не очень, 2 трэка тау показал как мпег, да и по спектру они отличаются (см. Spectrum), рипнулось всё это дело тож с ошибками (см. LOG). Но самое главное что компиляция очень достойная!


Top
 Profile E-mail  
 
 
PostPosted: 23 Dec 2012 
Прокъмитолист
User avatar
Joined: 12 Aug 2007
Posts: 6878
Lоcаtion: Санктъ-Петербуркъ
Age: 54
Name: Олекъ
Димка, меняй привод. что-то много кривых рипов в последнее время получается :umnik:

_________________
прокъметол - это музыко, от которово есть прок (ы)


Top
 Profile  
 
 
PostPosted: 23 Dec 2012 
Работнечег
User avatar
Joined: 28 Aug 2007
Posts: 6392
Lоcаtion: г. Москва
Age: 32
Name: Дима
это диск такой, более чем уверен, что лучше рип не получиться :(


Top
 Profile E-mail  
 
 
PostPosted: 23 Dec 2012 
Труъ
User avatar
Joined: 23 Nov 2012
Posts: 149
Lоcаtion: Новосибирск
Age: 41
Name: Игорь
Можно попробовать треки, на которых ошибки, рипнуть по отдельности в параноидном режиме. Америку наверно не открою, но у меня была парочка дисков, которые в CD-проигрывателе игрались нормально, но никак не хотели нормально считываться на компе в какой бы то ни было программе без заиканий в т.ч. и ЕАКом в достоверном режиме, а в параноидном режиме вообще идеально считались, безо всяких дефектов. Может быть и тут прокатит :dance:

_________________
ты не мужчина если у тебя нет штанги (и электрогитары)


Top
 Profile E-mail  
 
 
PostPosted: 24 Dec 2012 
Хиппей (support team)
User avatar
Joined: 30 Jul 2007
Posts: 123253
Lоcаtion: Киев (Kyiv, UA)
Age: 48
Name: Andrey
:thanx:

mirror: F-Bit l Narod l eDisk

Пока и в таком виде заберу :dance: Чисто из-за вокалиста :oops:

_________________


Top
 Profile E-mail  
 
 
PostPosted: 15 Aug 2013 
Хиппей (support team)
User avatar
Joined: 30 Jul 2007
Posts: 123253
Lоcаtion: Киев (Kyiv, UA)
Age: 48
Name: Andrey
Scatterbrain wrote:
Чисто из-за вокалиста

Мдя...
Ну в Кловен Хуфе он то пел получше. А здесь...
Странная и лично мне непонятная и невнятная попытка типа показать из себя группу Iron Maiden :vic: Записывали явно альбом за пару дней в запаре дней в дешёвенькой студии.

К сожалению, в утиль :(

2/10

_________________


Top
 Profile E-mail  
 
Display posts from previous:  Sort by  
Post new topic Reply to topic  [ 6 posts ] 

All times are UTC + 3 hours


Who is online

Users browsing this forum: No registered users and 1 guest


You cannot post new topics in this forum
You cannot reply to topics in this forum
You cannot edit your posts in this forum
You cannot delete your posts in this forum

Search for:
Яндекс.Метрика
cron
Powered by phpBB © 2000, 2002, 2005, 2007 phpBB Group