\m/ 80's metal \m/

Информационно-аналитический форум "80 см пыли" (In Search We Trust) "У нас никто никуда не спешит"
Me For You - http://me-4u.com
It is currently 23 Jan 2021

All times are UTC + 3 hours

Spoiler
Chat - temporary registration for foreign users (please leave your application here)







Post new topic Reply to topic  [ 6 posts ] 
Author Message
 
PostPosted: 01 Dec 2012 
А может смените мне статус?..
User avatar
Joined: 24 Sep 2012
Posts: 856
Lоcаtion: Нижегородская обл.
Age: 50
Name: Вячеслав
Image

Исполнитель: Crossfire
Альбом: See You in Hell
Страна: Belgium (Aalst, East Flanders)
Год издания: 1983 (Reissued 1994)
Страна производителя диска: Germany
Издатель (лейбл) / Номер по каталогу: Mausoleum / 704114.2
Жанр: Heavy Metal
Формат Аудио: FLAC (Cue/Log/Image)+ All Scans
Продолжительность Звучания Альбома: 00:37:50
Размер Архива: 301 Mb (+ 3% recovery)
Источник (релизер): slayer19

Треклист:

1. Demon of Evil 03:46
2. Killing a Cop 04:26
3. Magnificent Night 06:21
4. Danger on Earth 04:21
5. Fly High 05:31
6. Lover's Game 03:57
7. Starchild 06:08
8. See You in Hell 03:20

"Лог создания рипа"
Exact Audio Copy V1.0 beta 3 from 29. August 2011

Отчёт EAC об извлечении, выполненном 28. ноября 2012, 12:59

Crossfire / See You in Hell

Дисковод: Optiarc DVD RW AD-7200A Adapter: 0 ID: 0

Режим чтения : Достоверность
Использование точного потока : Да
Отключение кэша аудио : Да
Использование указателей C2 : Нет

Коррекция смещения при чтении : 48
Способность читать области Lead-in и Lead-out : Нет
Заполнение пропущенных сэмплов тишиной : Да
Удаление блоков с тишиной в начале и конце : Нет
При вычислениях CRC использовались нулевые сэмплы : Да
Интерфейс : Встроенный Win32-интерфейс для Win NT/2000

Выходной формат : Пользовательский кодировщик
Выбранный битрейт : 128 kBit/s
Качество : Высокий
Добавление ID3-тега : Нет
Утилита сжатия : C:\Program Files\FLAC\FLAC frontend.exe

TOC извлечённого CD

Трек | Старт | Длительность | Начальный сектор | Конечный сектор
---------------------------------------------------------------------
1 | 0:00.00 | 3:46.00 | 0 | 16949
2 | 3:46.00 | 4:25.72 | 16950 | 36896
3 | 8:11.72 | 6:20.70 | 36897 | 65466
4 | 14:32.67 | 4:20.63 | 65467 | 85029
5 | 18:53.55 | 5:31.17 | 85030 | 109871
6 | 24:24.72 | 3:57.33 | 109872 | 127679
7 | 28:22.30 | 6:07.65 | 127680 | 155269
8 | 34:30.20 | 3:19.62 | 155270 | 170256

Характеристики диапазона извлечения и сообщения об ошибках

Выбранный диапазон

Имя файла D:\МОИ ФАЙЛЫ\LOSSLESS\slayer19\Crossfire - See You in Hell.wav

Пиковый уровень 99.6 %
Скорость извлечения 3.5 X
Качество диапазона 100.0 %
CRC теста 43108DA7
CRC копии 43108DA7
Копирование... OK

Ошибок не произошло

AccurateRip: сводка

Трек 1 : извлечено точно (доверие 1) [DD4DF72D] (AR v1)
Трек 2 : извлечено точно (доверие 1) [A69C257B] (AR v1)
Трек 3 : извлечено точно (доверие 1) [2E5A207B] (AR v1)
Трек 4 : извлечено точно (доверие 1) [5FC1C62F] (AR v1)
Трек 5 : извлечено точно (доверие 1) [016D444E] (AR v1)
Трек 6 : извлечено точно (доверие 1) [982765B5] (AR v1)
Трек 7 : извлечено точно (доверие 1) [DA01EB81] (AR v1)
Трек 8 : извлечено точно (доверие 1) [8DB95720] (AR v1)

Все треки извлечены точно

Конец отчёта

---- CUETools DB Plugin V2.1.3

[CTDB TOCID: Fb2VIbjX9mPAqmudQPx4cSQcmR4-] found, Submit result: Fb2VIbjX9mPAqmudQPx4cSQcmR4- has been uploaded
[2af4b41d] (1/1) No match

==== Контрольная сумма отчёта A06153505A58F1CC329652A7ED95E462505453ABE44EC0F3E9B56A93DD2AEAE1 ====

"Фото"
Image


Скачать: Crossfire - See You in Hell 1983 (Reissued 1994) by slayer19.rar

_________________
Image


Top
 Profile E-mail  
 
 
PostPosted: 01 Dec 2012 
Пионэръ
User avatar
Joined: 02 Jul 2010
Posts: 45
Lоcаtion: Сочи
Age: 48
Name: Борис
:thanx: :true: :thanx:


Top
 Profile E-mail  
 
 
PostPosted: 01 Dec 2012 
Хиппей (support team)
User avatar
Joined: 30 Jul 2007
Posts: 119843
Lоcаtion: Киев (Kyiv, UA)
Age: 47
Name: Andrey
:thanx:

mirror: MUltiUp l Narod

Когда-то очень долго искали эту запись в качестве... :fingal:

_________________


Top
 Profile E-mail  
 
 
PostPosted: 12 Oct 2013 
\m/ 80 см сала \m/
User avatar
Joined: 12 Mar 2012
Posts: 2599
Age: 27
Name: Nick
slayer19, :thanx:

_________________
1990 AUROPHON BRAINSTORM (Germany) - lossless
1994 MAUSOLEUM CLASSIX (Belgium-Germany) - lossless
1998 VA - GRIM HARVEST - Complete Metal Massacre Volumes I-XII


Top
 Profile  
 
 
PostPosted: 06 Mar 2014 
ТрэшЭрос
User avatar
Joined: 18 Jul 2011
Posts: 2307
Lоcаtion: Гулькевичи
Age: 46
Name: Александр
:thanx:

_________________
Thrash no trash!!!


Top
 Profile E-mail  
 
 
PostPosted: 06 Mar 2014 
Хиппей (support team)
User avatar
Joined: 30 Jul 2007
Posts: 119843
Lоcаtion: Киев (Kyiv, UA)
Age: 47
Name: Andrey
Сань, пролез нормально на форум? =)

_________________


Top
 Profile E-mail  
 
Display posts from previous:  Sort by  
Post new topic Reply to topic  [ 6 posts ] 

All times are UTC + 3 hours


Who is online

Users browsing this forum: No registered users and 3 guests


You cannot post new topics in this forum
You cannot reply to topics in this forum
You cannot edit your posts in this forum
You cannot delete your posts in this forum
You cannot post attachments in this forum

Search for:
Яндекс.Метрика
Powered by phpBB © 2000, 2002, 2005, 2007 phpBB Group