\m/ 80's metal \m/

Информационно-аналитический форум "80 см пыли" (In Search We Trust) "У нас никто никуда не спешит"
Me For You - http://me-4u.com
It is currently 27 Jan 2021

All times are UTC + 3 hours

Spoiler
Chat - temporary registration for foreign users (please leave your application here)







Post new topic Reply to topic  [ 8 posts ] 
Author Message
 
PostPosted: 11 Nov 2012 
А может смените мне статус?..
User avatar
Joined: 24 Sep 2012
Posts: 856
Lоcаtion: Нижегородская обл.
Age: 50
Name: Вячеслав
Image

Исполнитель: Chroming Rose
Альбом: Louis XIV
Страна: Germany (Senden, Bavaria)
Год издания: 1990
Страна производителя диска: Japan
Номер по каталогу: TOCP-6180
Жанр: Melodic Speed Metal
Формат Аудио: FLAC (Cue/Log/Image)+ All Scans
Продолжительность Звучания Альбома: 00:47:09
Размер Архива: 379 Mb (+ 3% recovery)
Источник (релизер): slayer19

Треклист:

01. Power and Glory 05:23
02. Pharaoh 04:40
03. 10 000 Miles 04:28
04. Right to Me 04:04
05. Louis XIV 06:28
06. Gods of Noise 06:31
07. You and I 04:37
08. Angel (bonus track) 04:17
09. Shoot the Fox (bonus track) 06:05
10. Jodle Dodle 00:37

"Лог создания рипа"
Exact Audio Copy V1.0 beta 3 from 29. August 2011

Отчёт EAC об извлечении, выполненном 9. ноября 2012, 10:29

Chroming Rose / Louis XIV

Дисковод: Optiarc DVD RW AD-7200A Adapter: 0 ID: 0

Режим чтения : Достоверность
Использование точного потока : Да
Отключение кэша аудио : Да
Использование указателей C2 : Нет

Коррекция смещения при чтении : 48
Способность читать области Lead-in и Lead-out : Нет
Заполнение пропущенных сэмплов тишиной : Да
Удаление блоков с тишиной в начале и конце : Нет
При вычислениях CRC использовались нулевые сэмплы : Да
Интерфейс : Встроенный Win32-интерфейс для Win NT/2000

Выходной формат : Пользовательский кодировщик
Выбранный битрейт : 128 kBit/s
Качество : Высокий
Добавление ID3-тега : Нет
Утилита сжатия : C:\Program Files\FLAC\FLAC frontend.exe


TOC извлечённого CD

Трек | Старт | Длительность | Начальный сектор | Конечный сектор
---------------------------------------------------------------------
1 | 0:00.00 | 5:22.45 | 0 | 24194
2 | 5:22.45 | 4:40.22 | 24195 | 45216
3 | 10:02.67 | 4:27.55 | 45217 | 65296
4 | 14:30.47 | 4:03.58 | 65297 | 83579
5 | 18:34.30 | 6:27.62 | 83580 | 112666
6 | 25:02.17 | 6:31.30 | 112667 | 142021
7 | 31:33.47 | 4:36.70 | 142022 | 162791
8 | 36:10.42 | 4:17.05 | 162792 | 182071
9 | 40:27.47 | 6:04.58 | 182072 | 209429
10 | 46:32.30 | 0:36.40 | 209430 | 212169


Характеристики диапазона извлечения и сообщения об ошибках

Выбранный диапазон

Имя файла D:\МОИ ФАЙЛЫ\LOSSLESS\slayer19\Chroming Rose - Louis XIV.wav

Пиковый уровень 91.0 %
Скорость извлечения 3.7 X
Качество диапазона 100.0 %
CRC теста 5C1BA996
CRC копии 5C1BA996
Копирование... OK

Ошибок не произошло


AccurateRip: сводка

Трек 1 точность не определена (достоверность 2) [E2FE7A99], AccurateRip вернул [688AB3D1] (AR v2)
Трек 2 точность не определена (достоверность 2) [D75894FD], AccurateRip вернул [041A358E] (AR v2)
Трек 3 точность не определена (достоверность 2) [C6A164A9], AccurateRip вернул [C5B93526] (AR v2)
Трек 4 точность не определена (достоверность 2) [F99616D8], AccurateRip вернул [AE052BC9] (AR v2)
Трек 5 точность не определена (достоверность 2) [384A7638], AccurateRip вернул [B738D17F] (AR v2)
Трек 6 точность не определена (достоверность 2) [CDEE26C2], AccurateRip вернул [490FC33A] (AR v2)
Трек 7 точность не определена (достоверность 2) [DD366340], AccurateRip вернул [51BB23A3] (AR v2)
Трек 8 точность не определена (достоверность 2) [387615C5], AccurateRip вернул [DC54549C] (AR v2)
Трек 9 точность не определена (достоверность 2) [D5EC15A3], AccurateRip вернул [E9D732C0] (AR v2)
Трек 10 точность не определена (достоверность 2) [38EA49AD], AccurateRip вернул [6B4C7EE9] (AR v2)

Ни один трек не прошёл проверки на точность
В вашей базе может быть иной вариант штамповки диска

Конец отчёта

---- CUETools DB Plugin V2.1.3

[CTDB TOCID: DCZJDgh1nJmD8j_tvhPksYmdTeo-] found, Submit result: DCZJDgh1nJmD8j_tvhPksYmdTeo- has been confirmed
[7d8f3245] (3/3) Accurately ripped


==== Контрольная сумма отчёта 8B69DFBE00B96E72F2A2842D2D65A535E5A2B1ED0000DBBDA3704F70ADA47425 ====

"Фото"
Image


Скачать: Chroming Rose - Louis XIV 1990 (Japan) by slayer19.rar

_________________
Image


Last edited by slayer19 on 11 Nov 2012, edited 2 times in total.

Top
 Profile E-mail  
 
 
PostPosted: 11 Nov 2012 
ТрэшЭрос
User avatar
Joined: 18 Jul 2011
Posts: 2307
Lоcаtion: Гулькевичи
Age: 46
Name: Александр
:thanx: Спасибо, Слав, за Луи 14! Не слышал о таком ))

_________________
Thrash no trash!!!


Top
 Profile E-mail  
 
 
PostPosted: 11 Nov 2012 
А может смените мне статус?..
User avatar
Joined: 24 Sep 2012
Posts: 856
Lоcаtion: Нижегородская обл.
Age: 50
Name: Вячеслав
Александр пожалуйста, по мне так замечательный альбом!

_________________
Image


Top
 Profile E-mail  
 
 
PostPosted: 12 Nov 2012 
ТрэшЭрос
User avatar
Joined: 18 Jul 2011
Posts: 2307
Lоcаtion: Гулькевичи
Age: 46
Name: Александр
slayer19 wrote:
замечательный альбом!

Аха! Особливо:
slayer19 wrote:
10. Jodle Dodle 00:37

Такое всё родное... :benya: :true:

_________________
Thrash no trash!!!


Top
 Profile E-mail  
 
 
PostPosted: 07 Aug 2013 
Хиппей (support team)
User avatar
Joined: 30 Jul 2007
Posts: 119963
Lоcаtion: Киев (Kyiv, UA)
Age: 47
Name: Andrey
:thanx:

mirror: F-Bit l Narod

_________________


Top
 Profile E-mail  
 
 
PostPosted: 07 Aug 2013 
Доктор энтомологии
User avatar
Joined: 22 Jan 2009
Posts: 10370
Lоcаtion: Даугавпилс
Age: 45
Name: Алексей
:thanx:


Top
 Profile  
 
 
PostPosted: 12 Oct 2013 
\m/ 80 см сала \m/
User avatar
Joined: 12 Mar 2012
Posts: 2599
Age: 27
Name: Nick
slayer19 , :thanx:

_________________
1990 AUROPHON BRAINSTORM (Germany) - lossless
1994 MAUSOLEUM CLASSIX (Belgium-Germany) - lossless
1998 VA - GRIM HARVEST - Complete Metal Massacre Volumes I-XII


Top
 Profile  
 
 
PostPosted: 08 Dec 2013 
Персональный статус
User avatar
Joined: 04 Mar 2012
Posts: 239
Lоcаtion: Саратов
Name: Василий
:thanx:


Top
 Profile E-mail  
 
Display posts from previous:  Sort by  
Post new topic Reply to topic  [ 8 posts ] 

All times are UTC + 3 hours


Who is online

Users browsing this forum: No registered users and 1 guest


You cannot post new topics in this forum
You cannot reply to topics in this forum
You cannot edit your posts in this forum
You cannot delete your posts in this forum
You cannot post attachments in this forum

Search for:
Яндекс.Метрика
Powered by phpBB © 2000, 2002, 2005, 2007 phpBB Group