\m/ 80's metal \m/

Информационно-аналитический форум "80 см пыли" (In Search We Trust) "У нас никто никуда не спешит"
Me For You - http://me-4u.com
It is currently 01 Dec 2021

All times are UTC + 3 hours

Spoiler
Chat - temporary registration for foreign users (please leave your application here)







Post new topic Reply to topic  [ 23 posts ]  Go to page Previous  1, 2
Author Message
 
PostPosted: 07 Oct 2012 
Работнечег
User avatar
Joined: 28 Aug 2007
Posts: 6392
Lоcаtion: г. Москва
Age: 32
Name: Дима
Image

Band: Cryptic
Album: Shrouded In Mystery
Year: 1997
Label: Self-Released
Genre: Power/Thrash Metal
Coutry: Germany
Format: Flac + Log + Cue + Covers/ Mp3@320 + Covers
Size: 353 Mb/ 110 Mb

Line-Up:
Oliver Göss - Bass
Norbert Hartmann - Vocals, Background Harmonies
Manfred Herzog - Guitars
Christian Klein - Guitars
Johannes Klein - Drums (R.I.P. 2006)


Tracklist:
1. Shrouded in Mystery 02:07
2. Lack of Animosity 06:04
3. Brainchild 05:06
4. Oblivious Vapors 04:49
5. Predator One 06:04
6. My Messiah 05:57
7. Fog's Kiss 08:43
8. Throne of Chaos 06:03

LOG
Exact Audio Copy V0.99 prebeta 5 from 4. May 2009

EAC extraction logfile from 7. September 2012, 21:30

Cryptic / Shrouded In Mystery

Used drive : PIONEER DVD-RW DVR-116D Adapter: 0 ID: 0

Read mode : Secure
Utilize accurate stream : Yes
Defeat audio cache : Yes
Make use of C2 pointers : No

Read offset correction : 96
Overread into Lead-In and Lead-Out : No
Fill up missing offset samples with silence : Yes
Delete leading and trailing silent blocks : No
Null samples used in CRC calculations : Yes
Used interface : Native Win32 interface for Win NT & 2000

Used output format : User Defined Encoder
Selected bitrate : 32 kBit/s
Quality : High
Add ID3 tag : No
Command line compressor : C:\Program Files\Exact Audio Copy\Flac\flac.exe
Additional command line options : -6 -V %s


TOC of the extracted CD

Track | Start | Length | Start sector | End sector
---------------------------------------------------------
1 | 0:00.00 | 2:10.39 | 0 | 9788
2 | 2:10.39 | 6:07.45 | 9789 | 37358
3 | 8:18.09 | 5:09.35 | 37359 | 60568
4 | 13:27.44 | 4:52.67 | 60569 | 82535
5 | 18:20.36 | 6:07.45 | 82536 | 110105
6 | 24:28.06 | 6:00.31 | 110106 | 137136
7 | 30:28.37 | 8:46.20 | 137137 | 176606
8 | 39:14.57 | 6:03.27 | 176607 | 203858


Range status and errors

Selected range

Filename D:\Музыка\Lossless\Cryptic - Shrouded In Mystery (1997) flac\Cryptic - Shrouded In Mystery.wav

Peak level 98.8 %
Range quality 99.9 %
Copy CRC 13A2E11E
Copy OK

No errors occurred


AccurateRip summary

Track 1 accurately ripped (confidence 2) [11AE2A01]
Track 2 accurately ripped (confidence 2) [83A0D95F]
Track 3 accurately ripped (confidence 2) [667B8417]
Track 4 accurately ripped (confidence 2) [D225259A]
Track 5 accurately ripped (confidence 2) [830CF0CD]
Track 6 accurately ripped (confidence 2) [BFAB30A8]
Track 7 accurately ripped (confidence 2) [07507732]
Track 8 accurately ripped (confidence 2) [27BC3CD9]

All tracks accurately ripped

End of status report

CUE
REM GENRE "Thrash Metal"
REM DATE 1997
REM DISCID 4A0A9E08
REM COMMENT "ExactAudioCopy v0.99pb5"
PERFORMER "Cryptic"
TITLE "Shrouded In Mystery"
FILE "Cryptic - Shrouded In Mystery.flac" WAVE
TRACK 01 AUDIO
TITLE "Shrouded In Mystery"
PERFORMER "Cryptic"
INDEX 01 00:00:00
TRACK 02 AUDIO
TITLE "Lack Of Animosity"
PERFORMER "Cryptic"
INDEX 00 02:07:39
INDEX 01 02:10:39
TRACK 03 AUDIO
TITLE "Brainchild"
PERFORMER "Cryptic"
INDEX 00 08:15:09
INDEX 01 08:18:09
TRACK 04 AUDIO
TITLE "Oblivious Vapours"
PERFORMER "Cryptic"
INDEX 00 13:24:44
INDEX 01 13:27:44
TRACK 05 AUDIO
TITLE "Predator One"
PERFORMER "Cryptic"
INDEX 00 18:17:36
INDEX 01 18:20:36
TRACK 06 AUDIO
TITLE "My Messiah"
PERFORMER "Cryptic"
INDEX 00 24:25:06
INDEX 01 24:28:06
TRACK 07 AUDIO
TITLE "Fog's Kiss"
PERFORMER "Cryptic"
INDEX 00 30:25:37
INDEX 01 30:28:37
TRACK 08 AUDIO
TITLE "Throne Of Chaos"
PERFORMER "Cryptic"
INDEX 00 39:11:57
INDEX 01 39:14:57

Spectrum
Image


Не буду особо расписывать, альбом отличный! Егору должно понравиться ;)
P.S. Бэк красивый, имхо.

Image

P.P.S. Дальше группа переименовалась в Encryption и выпустила ещё один альбом. Надо бы найти...

MP3@320
FLAC

phpBB [youtube]

phpBB [youtube]


Last edited by Scatterbrain on 01 Sep 2016, edited 1 time in total.
Подправил заглавие темки


Top
 Profile E-mail  
 
 
PostPosted: 02 Sep 2016 
Хиппей (support team)
User avatar
Joined: 30 Jul 2007
Posts: 123186
Lоcаtion: Киев (Kyiv, UA)
Age: 48
Name: Andrey
Quote:
С фолком

:beee:

Не-не, Лёш, там не тот фолк, который с гармошками, дудками и прочими народными инструментами и медведями.
Там, скорее атмосфера песен фолковая. Веселуха.
Ну, вот хотел сравнить с Финнтролем, но не буду. Там всё же фолк, и его зачастую многовато.

_________________


Top
 Profile E-mail  
 
 
PostPosted: 02 Sep 2016 
Хиппей (support team)
User avatar
Joined: 30 Jul 2007
Posts: 123186
Lоcаtion: Киев (Kyiv, UA)
Age: 48
Name: Andrey
Vitaly65 wrote:
А как-же 6-й трек? Перезаписанный из демки.

Дальше, вроде и он понравился :dance: Сейчас уже о группе и забыл почти :vic: Втоая (панки) намного больше впёрли :lob: :lob: :lob:
Vitaly65 wrote:
Мне кстати тоже понравился, атмосферой что-ли. А может просто когда демку ремастил - обслушался, захотелось приличного саунда. :vic:
Хоть команда и не пробилась особо, но что-то в них есть интересное.

Что-что. Нестандартизм.

_________________


Top
 Profile E-mail  
 
 
PostPosted: 02 Sep 2016 
Рарник и трушник
User avatar
Joined: 25 Dec 2009
Posts: 9702
Lоcаtion: Москва
Age: 56
Name: Виталий
Scatterbrain wrote:
Нестандартизм

Наверное. Типа должно быть скучно по всем канонам жанра. А вот нескучно жеж. :vic:


Top
 Profile  
 
Display posts from previous:  Sort by  
Post new topic Reply to topic  [ 23 posts ]  Go to page Previous  1, 2

All times are UTC + 3 hours


Who is online

Users browsing this forum: No registered users and 1 guest


You cannot post new topics in this forum
You cannot reply to topics in this forum
You cannot edit your posts in this forum
You cannot delete your posts in this forum

Search for:
Яндекс.Метрика
Powered by phpBB © 2000, 2002, 2005, 2007 phpBB Group