\m/ 80's metal \m/

Информационно-аналитический форум "80 см пыли" (In Search We Trust) "У нас никто никуда не спешит"
Me For You - http://me-4u.com
It is currently 19 Jan 2021

All times are UTC + 3 hours

Spoiler
Chat - temporary registration for foreign users (please leave your application here)







Post new topic Reply to topic  [ 12 posts ] 
Author Message
 
PostPosted: 12 Feb 2012 
Работнечег
User avatar
Joined: 28 Aug 2007
Posts: 6363
Lоcаtion: г. Москва
Age: 31
Name: Дима
Attachment:
Front.jpg
Front.jpg [ 577.92 KiB | Viewed 217 times ]

Band: Contradiction
Album: Contraminated
Year: 2001
Label: Self-Released
Genre: Thrash Metal
Coutry: Germany
Format: Flac + Log + Cue + Covers
Size: 283 Mb

Line-Up:
Koffer - Guitars, Vocals
Olli - Guitar
Kasi - Bass
Tim - Drums


Tracklist:
1. 2001 03:13
2. The Pain Will Remain 05:13
3. Unreal 04:01
4. Out 05:29
5. Honesty 04:05
6. Of You And Me 04:51
7. R.O.P. 04:28
8. Fields 02:54
9. State Of Claim 04:23
10. Demon 03:48

LOG
Exact Audio Copy V0.99 prebeta 5 from 4. May 2009

EAC extraction logfile from 4. January 2012, 14:44

Contradiction / Contraminated

Used drive : PIONEER DVD-RW DVR-116D Adapter: 0 ID: 0

Read mode : Secure
Utilize accurate stream : Yes
Defeat audio cache : Yes
Make use of C2 pointers : No

Read offset correction : 96
Overread into Lead-In and Lead-Out : No
Fill up missing offset samples with silence : Yes
Delete leading and trailing silent blocks : No
Null samples used in CRC calculations : Yes
Used interface : Native Win32 interface for Win NT & 2000

Used output format : User Defined Encoder
Selected bitrate : 32 kBit/s
Quality : High
Add ID3 tag : No
Command line compressor : C:\Program Files\Exact Audio Copy\Flac\flac.exe
Additional command line options : -6 -V %s


TOC of the extracted CD

Track | Start | Length | Start sector | End sector
---------------------------------------------------------
1 | 0:00.00 | 3:12.15 | 0 | 14414
2 | 3:12.15 | 5:13.58 | 14415 | 37947
3 | 8:25.73 | 4:03.51 | 37948 | 56223
4 | 12:29.49 | 5:28.72 | 56224 | 80895
5 | 17:58.46 | 4:07.37 | 80896 | 99457
6 | 22:06.08 | 4:51.16 | 99458 | 121298
7 | 26:57.24 | 4:31.43 | 121299 | 141666
8 | 31:28.67 | 2:56.00 | 141667 | 154866
9 | 34:24.67 | 4:24.39 | 154867 | 174705
10 | 38:49.31 | 3:45.69 | 174706 | 191649


Range status and errors

Selected range

Filename D:\Музыка\Lossless\Contradiction - Contraminated (2001)\Contradiction - Contraminated.wav

Peak level 100.0 %
Range quality 100.0 %
Copy CRC B24AC078
Copy OK

No errors occurred


AccurateRip summary

Track 1 not present in database
Track 2 not present in database
Track 3 not present in database
Track 4 not present in database
Track 5 not present in database
Track 6 not present in database
Track 7 not present in database
Track 8 not present in database
Track 9 not present in database
Track 10 not present in database

None of the tracks are present in the AccurateRip database

End of status report

CUE
REM GENRE "Thrash Metal"
REM DATE 2001
REM DISCID 7A09FB0A
REM COMMENT "ExactAudioCopy v0.99pb5"
PERFORMER "Contradiction"
TITLE "Contraminated"
FILE "Contradiction - Contraminated.flac" WAVE
TRACK 01 AUDIO
TITLE "2001"
PERFORMER "Contradiction"
INDEX 01 00:00:00
TRACK 02 AUDIO
TITLE "The Pain Will Remain"
PERFORMER "Contradiction"
INDEX 00 03:11:15
INDEX 01 03:12:15
TRACK 03 AUDIO
TITLE "Unreal"
PERFORMER "Contradiction"
INDEX 01 08:25:73
TRACK 04 AUDIO
TITLE "Out"
PERFORMER "Contradiction"
INDEX 00 12:28:49
INDEX 01 12:29:49
TRACK 05 AUDIO
TITLE "Honesty"
PERFORMER "Contradiction"
INDEX 01 17:58:46
TRACK 06 AUDIO
TITLE "Of You And Me"
PERFORMER "Contradiction"
INDEX 00 22:05:08
INDEX 01 22:06:08
TRACK 07 AUDIO
TITLE "Rules Of Peace"
PERFORMER "Contradiction"
INDEX 01 26:57:24
TRACK 08 AUDIO
TITLE "Fields"
PERFORMER "Contradiction"
INDEX 00 31:27:67
INDEX 01 31:28:67
TRACK 09 AUDIO
TITLE "State Of Claim"
PERFORMER "Contradiction"
INDEX 01 34:24:67
TRACK 10 AUDIO
TITLE "Demon"
PERFORMER "Contradiction"
INDEX 01 38:49:31

SPECTRUM
Image


Narod.Ru

Другие альбом группы на форуме:
Rules Of Peace (1993)
All We Hate (1995)
The Essence Of Anger (2009)


Top
 Profile E-mail  
 
 
PostPosted: 12 Feb 2012 
Прокъмитолист
User avatar
Joined: 12 Aug 2007
Posts: 6786
Lоcаtion: Санктъ-Петербуркъ
Age: 53
Name: Олекъ
:thanx: :true:

_________________
прокъметол - это музыко, от которово есть прок (ы)


Top
 Profile  
 
 
PostPosted: 13 Feb 2012 
Персональный статус
User avatar
Joined: 22 Oct 2011
Posts: 352
Lоcаtion: Moscow
Age: 62
Name: Серёжа
:thanx:


Top
 Profile E-mail  
 
 
PostPosted: 13 Feb 2012 
Хиппей (support team)
User avatar
Joined: 30 Jul 2007
Posts: 119816
Lоcаtion: Киев (Kyiv, UA)
Age: 47
Name: Andrey
:thanx:

mirror: Speedy l Narod

_________________


Top
 Profile E-mail  
 
 
PostPosted: 13 Feb 2012 
Генеральный thrasher
User avatar
Joined: 03 Oct 2008
Posts: 3751
Lоcаtion: Ханты-Мансийский АО
Age: 45
Name: Сергей
Спасибо,Дим!


Top
 Profile  
 
 
PostPosted: 13 Feb 2012 
ТрэшЭрос
User avatar
Joined: 18 Jul 2011
Posts: 2307
Lоcаtion: Гулькевичи
Age: 46
Name: Александр
church, пасиб, канешн балшой! Но здесь http://www.metal-archives.com/albums/Contradiction/Contraminated/16697 пишуть, шо це 2003-й рок... Прояснит хтонить? :oops:

_________________
Thrash no trash!!!


Top
 Profile E-mail  
 
 
PostPosted: 13 Feb 2012 
Хиппей (support team)
User avatar
Joined: 30 Jul 2007
Posts: 119816
Lоcаtion: Киев (Kyiv, UA)
Age: 47
Name: Andrey
Судя по заднему каверочку, все же в 2001 диск самиздатом группа выпустила (тем более, что первый трэк так и называется). А дальше... или опечатка на М-А или... я не понял тож :fingal:

зы. Исправил на 2001-й

_________________


Top
 Profile E-mail  
 
 
PostPosted: 13 Feb 2012 
Работнечег
User avatar
Joined: 28 Aug 2007
Posts: 6363
Lоcаtion: г. Москва
Age: 31
Name: Дима
Судя из буклета диск выпущен в 2001, так что 99% процентов, что на м-а ошибка.


Top
 Profile E-mail  
 
 
PostPosted: 15 Feb 2012 
ТрэшЭрос
User avatar
Joined: 18 Jul 2011
Posts: 2307
Lоcаtion: Гулькевичи
Age: 46
Name: Александр
...а альбомчеги
- The Voice of Hatred *05
- The Warchitect *06

буит? :oops:

_________________
Thrash no trash!!!


Top
 Profile E-mail  
 
 
PostPosted: 06 Mar 2012 
труъ антисионист
User avatar
Joined: 01 Aug 2007
Posts: 4544
Lоcаtion: Откуда и большинство из нас
Age: 40
Name: Дядя Вова
:true:

_________________
Image
Image


Top
 Profile  
 
 
PostPosted: 08 Mar 2012 
Работнечег
User avatar
Joined: 28 Aug 2007
Posts: 6363
Lоcаtion: г. Москва
Age: 31
Name: Дима
MetallicAS wrote:
...а альбомчеги
- The Voice of Hatred *05
- The Warchitect *06

буит? :oops:

Какой-то из этих альбомов на рутрэкере есть. Я на дисках ими не располагаю. И если буду покупать, то только The Warchitect, 2005ый мне как-то совсем не вставляет)


Top
 Profile E-mail  
 
 
PostPosted: 17 Mar 2012 
ТрэшЭрос
User avatar
Joined: 18 Jul 2011
Posts: 2307
Lоcаtion: Гулькевичи
Age: 46
Name: Александр
church wrote:
Какой-то из этих альбомов на рутрэкере есть.


Ога, "Voice of Hatred" (2005) тут :crazy:

_________________
Thrash no trash!!!


Top
 Profile E-mail  
 
Display posts from previous:  Sort by  
Post new topic Reply to topic  [ 12 posts ] 

All times are UTC + 3 hours


Who is online

Users browsing this forum: No registered users and 2 guests


You cannot post new topics in this forum
You cannot reply to topics in this forum
You cannot edit your posts in this forum
You cannot delete your posts in this forum
You cannot post attachments in this forum

Search for:
Яндекс.Метрика
Powered by phpBB © 2000, 2002, 2005, 2007 phpBB Group