\m/ 80's metal \m/

Информационно-аналитический форум "80 см пыли" (In Search We Trust) "У нас никто никуда не спешит"
Me For You - http://me-4u.com
It is currently 19 Feb 2019

All times are UTC + 3 hours

Spoiler
Chat - temporary registration for foreign users (please leave your application here)







Post new topic Reply to topic  [ 5 posts ] 
Author Message
 
PostPosted: 03 Jan 2012 
Хиппей (support team)
User avatar
Joined: 30 Jul 2007
Posts: 110327
Lоcаtion: Киев (Kyiv, UA)
Age: 45
Name: Andrey
Clockwise - 1997 - Nostalgia [ape]

Attachment:
front.jpg
front.jpg [ 7.19 MiB | Viewed 108 times ]

Attachment:
back.jpg
back.jpg [ 1.55 MiB | Viewed 104 times ]


Genre: Melodic Hard Rock
Location: Sweden
Format: ape+cue+log+scans
Size: 413 Mb


Line-up:
Benny Söderberg - vocals
Fredrik Akesson - guitar
John Levén - bass
Ian Haugland - drums

feat. Fortune Vocalist - Benny Söderberg

    1. Wings of Joy - 03:49
    2. This Blue World - 04:52
    3. Traveller - 05:25
    4. Higher Ground - 05:09
    5. Run the Race - 04:17
    6. Angel Eyes - 04:55
    7. Changes - 03:57
    8. Looking for Love - 04:01
    9. Paradize - 04:10
    10. The Tales of King Solitude 1:3 - 06:46

    TPT: 47:42

Очень приятный, красивый, мелодичный и вообще распрекрасный альбом :meloman:
Никакой моднятины или альтернативы :dance:

8/10

Источник: rutracker

MultiUp l Narod

log
Exact Audio Copy V1.0 beta 2 from 29. April 2011

Отчёт EAC об извлечении, выполненном 12. сентября 2011, 18:15

Clockwise / Nostalgia

Дисковод: PIONEER DVD-RW DVR-218L Adapter: 5 ID: 1

Режим чтения : Достоверность
Использование точного потока : Да
Отключение кэша аудио : Да
Использование указателей C2 : Нет

Коррекция смещения при чтении : 6
Способность читать области Lead-in и Lead-out : Нет
Заполнение пропущенных сэмплов тишиной : Да
Удаление блоков с тишиной в начале и конце : Нет
При вычислениях CRC использовались нулевые сэмплы : Да
Интерфейс : Встроенный Win32-интерфейс для Win NT/2000

Выходной формат : Внутренние WAV-операции
Формат сэмплов : 44.100 Гц; 16 бит; стерео


TOC извлечённого CD

Трек | Старт | Длительность | Начальный сектор | Конечный сектор
---------------------------------------------------------------------
1 | 0:00.00 | 3:51.57 | 0 | 17381
2 | 3:51.57 | 4:53.13 | 17382 | 39369
3 | 8:44.70 | 5:27.07 | 39370 | 63901
4 | 14:12.02 | 5:11.08 | 63902 | 87234
5 | 19:23.10 | 4:19.20 | 87235 | 106679
6 | 23:42.30 | 4:57.02 | 106680 | 128956
7 | 28:39.32 | 3:59.60 | 128957 | 146941
8 | 32:39.17 | 4:04.15 | 146942 | 165256
9 | 36:43.32 | 4:12.15 | 165257 | 184171
10 | 40:55.47 | 6:46.33 | 184172 | 214654


Характеристики диапазона извлечения и сообщения об ошибках

Выбранный диапазон

Имя файла E:\Мои раздачи\Clockwise - Nostalgia\ape\Clockwise - Nostalgia.wav

Пиковый уровень 100.0 %
Скорость извлечения 1.7 X
Качество диапазона 100.0 %
CRC теста 22B802B3
CRC копии 22B802B3
Копирование... OK

Ошибок не произошло


AccurateRip: сводка

Трек 1 : извлечено точно (доверие 1) [CCF4D716] (AR v2)
Трек 2 : извлечено точно (доверие 1) [FB687FD1] (AR v2)
Трек 3 : извлечено точно (доверие 1) [31D49E87] (AR v2)
Трек 4 : извлечено точно (доверие 1) [E473358E] (AR v2)
Трек 5 : извлечено точно (доверие 1) [46CFF0A5] (AR v2)
Трек 6 : извлечено точно (доверие 1) [7C540CFA] (AR v2)
Трек 7 : извлечено точно (доверие 1) [EF6B0C46] (AR v2)
Трек 8 : извлечено точно (доверие 1) [6C7C4AB3] (AR v2)
Трек 9 : извлечено точно (доверие 1) [0433D938] (AR v2)
Трек 10 : извлечено точно (доверие 1) [DC608574] (AR v2)

Все треки извлечены точно

Конец отчёта

==== Контрольная сумма отчёта 01026873B98B7F7911B3AD32B4CBF87B357D5B5929CA4C6F92E1F3F60CE9E13D ====


cue
REM GENRE "Hard Rock"
REM DISCID 770B2E0A
REM COMMENT "ExactAudioCopy v1.0b2"
PERFORMER "Clockwise"
TITLE "Nostalgia"
FILE "Clockwise - Nostalgia.wav" WAVE
TRACK 01 AUDIO
TITLE "Wings Of Joy"
PERFORMER "Clockwise"
INDEX 01 00:00:00
TRACK 02 AUDIO
TITLE "This Blue World"
PERFORMER "Clockwise"
INDEX 00 03:49:50
INDEX 01 03:51:57
TRACK 03 AUDIO
TITLE "Traveler"
PERFORMER "Clockwise"
INDEX 01 08:44:70
TRACK 04 AUDIO
TITLE "Higher Ground"
PERFORMER "Clockwise"
INDEX 00 14:10:55
INDEX 01 14:12:02
TRACK 05 AUDIO
TITLE "Run The Race"
PERFORMER "Clockwise"
INDEX 00 19:21:45
INDEX 01 19:23:10
TRACK 06 AUDIO
TITLE "Angel Eyes"
PERFORMER "Clockwise"
INDEX 00 23:40:05
INDEX 01 23:42:30
TRACK 07 AUDIO
TITLE "Changes"
PERFORMER "Clockwise"
INDEX 00 28:38:00
INDEX 01 28:39:32
TRACK 08 AUDIO
TITLE "Looking For Love"
PERFORMER "Clockwise"
INDEX 00 32:37:10
INDEX 01 32:39:17
TRACK 09 AUDIO
TITLE "Paradize"
PERFORMER "Clockwise"
INDEX 00 36:40:60
INDEX 01 36:43:32
TRACK 10 AUDIO
TITLE "The Tales Of King Solitude 1:3"
PERFORMER "Clockwise"
INDEX 00 40:53:37
INDEX 01 40:55:47


spectrum
Attachment:
spectrum.jpg
spectrum.jpg [ 363.22 KiB | Viewed 115 times ]


phpBB [youtube]

_________________


Top
 Profile E-mail  
 
 
PostPosted: 06 Mar 2012 
труъ антисионист
User avatar
Joined: 01 Aug 2007
Posts: 4541
Lоcаtion: Откуда и большинство из нас
Age: 38
Name: Дядя Вова
Андрей, спасибо за альбом, а то я до рутрекера никак не доберусь )))

_________________
Image
Image


Top
 Profile  
 
 
PostPosted: 09 Mar 2012 
Хиппей (support team)
User avatar
Joined: 30 Jul 2007
Posts: 110327
Lоcаtion: Киев (Kyiv, UA)
Age: 45
Name: Andrey
Вов, новая работа утомляет? :fingal:

_________________


Top
 Profile E-mail  
 
 
PostPosted: 12 Mar 2012 
Хиппей (support team)
User avatar
Joined: 30 Jul 2007
Posts: 110327
Lоcаtion: Киев (Kyiv, UA)
Age: 45
Name: Andrey
Ой, а чего эта тему у меня в непрочитанные влезла? :shok:

_________________


Top
 Profile E-mail  
 
 
PostPosted: 09 Oct 2012 
Труъ
User avatar
Joined: 05 Oct 2008
Posts: 194
Lоcаtion: Saint Petersburg
Age: 45
Name: Jesse
Очень позитивненький альбом! Большое спасибо!


Top
 Profile  
 
Display posts from previous:  Sort by  
Post new topic Reply to topic  [ 5 posts ] 

All times are UTC + 3 hours


Who is online

Users browsing this forum: No registered users and 3 guests


You cannot post new topics in this forum
You cannot reply to topics in this forum
You cannot edit your posts in this forum
You cannot delete your posts in this forum
You cannot post attachments in this forum

Search for:
Яндекс.Метрика
Powered by phpBB © 2000, 2002, 2005, 2007 phpBB Group