\m/ 80's metal \m/

Информационно-аналитический форум "80 см пыли" (In Search We Trust) "У нас никто никуда не спешит"
Me For You - http://me-4u.com
It is currently 01 Dec 2021

All times are UTC + 3 hours

Spoiler
Chat - temporary registration for foreign users (please leave your application here)







Post new topic Reply to topic  [ 14 posts ] 
Author Message
 
PostPosted: 05 Nov 2011 
Работнечег
User avatar
Joined: 28 Aug 2007
Posts: 6392
Lоcаtion: г. Москва
Age: 32
Name: Дима
Attachment:
Front.jpg

Band: Contradiction
Album: All We Hate!
Year: 1995
Label: Midan Records
Genre: Thrash Metal
Coutry: Germany
Format: Flac + Log + Cue + Covers
Size: 397 Mb

Line-Up:
Koffer - Guitars, Vocals
Olli - Guitar, Backing Vocals
Kasi - Bass, Backing Vocals
Lappen - Drums


Tracklist:
1. All We Hate 02:51
2. Red Line 03:44
3. Dic(k)tator 05:09
4. Disorder Unleashed 03:17
5. Pretender 04:32
6. Lifetime 02:54
7. Do You Wanna Die? 04:29
8. Land of Insanity 06:38
9. Scars on My Soul 04:09
10. 50 % Off 03:12
11. Voices 04:20
12. Wake Up 09:31

LOG
Exact Audio Copy V0.99 prebeta 5 from 4. May 2009

EAC extraction logfile from 5. November 2011, 17:13

Contradiction / All We Hate!

Used drive : PIONEER DVD-RW DVR-116D Adapter: 0 ID: 0

Read mode : Secure
Utilize accurate stream : Yes
Defeat audio cache : Yes
Make use of C2 pointers : No

Read offset correction : 96
Overread into Lead-In and Lead-Out : No
Fill up missing offset samples with silence : Yes
Delete leading and trailing silent blocks : No
Null samples used in CRC calculations : Yes
Used interface : Native Win32 interface for Win NT & 2000

Used output format : User Defined Encoder
Selected bitrate : 32 kBit/s
Quality : High
Add ID3 tag : No
Command line compressor : C:\Program Files\Exact Audio Copy\Flac\flac.exe
Additional command line options : -6 -V %s


TOC of the extracted CD

Track | Start | Length | Start sector | End sector
---------------------------------------------------------
1 | 0:00.00 | 2:51.26 | 0 | 12850
2 | 2:51.26 | 3:43.50 | 12851 | 29625
3 | 6:35.01 | 5:09.08 | 29626 | 52808
4 | 11:44.09 | 3:16.47 | 52809 | 67555
5 | 15:00.56 | 4:31.54 | 67556 | 87934
6 | 19:32.35 | 2:54.02 | 87935 | 100986
7 | 22:26.37 | 4:29.18 | 100987 | 121179
8 | 26:55.55 | 6:37.54 | 121180 | 151008
9 | 33:33.34 | 4:09.28 | 151009 | 169711
10 | 37:42.62 | 3:12.31 | 169712 | 184142
11 | 40:55.18 | 4:20.02 | 184143 | 203644
12 | 45:15.20 | 9:30.70 | 203645 | 246464


Range status and errors

Selected range

Filename D:\Музыка\Lossless\Contradiction - All We Hate (1995)\Contradiction - All We Hate!.wav

Peak level 100.0 %
Range quality 100.0 %
Copy CRC CC9C19F3
Copy OK

No errors occurred


AccurateRip summary

Track 1 accurately ripped (confidence 2) [F9F0B1BD]
Track 2 accurately ripped (confidence 2) [55E66398]
Track 3 accurately ripped (confidence 2) [2AE56FD4]
Track 4 accurately ripped (confidence 2) [3D5C30D0]
Track 5 accurately ripped (confidence 2) [251F2CDD]
Track 6 accurately ripped (confidence 2) [32843417]
Track 7 accurately ripped (confidence 2) [506F9847]
Track 8 accurately ripped (confidence 2) [ACE5C22A]
Track 9 accurately ripped (confidence 2) [A10DB0D5]
Track 10 accurately ripped (confidence 2) [8ACE82AB]
Track 11 accurately ripped (confidence 2) [59D8BEF9]
Track 12 not present in database

11 track(s) accurately ripped
1 track(s) not present in the AccurateRip database

Some tracks could not be verified as accurate

End of status report

CUE
REM GENRE "Thrash Metal"
REM DATE 1995
REM DISCID 9D0CD60C
REM COMMENT "ExactAudioCopy v0.99pb5"
PERFORMER "Contradiction"
TITLE "All We Hate!"
FILE "Contradiction - All We Hate!.flac" WAVE
TRACK 01 AUDIO
TITLE "All We Hate"
PERFORMER "Contradiction"
INDEX 01 00:00:00
TRACK 02 AUDIO
TITLE "Red Line"
PERFORMER "Contradiction"
INDEX 01 02:51:26
TRACK 03 AUDIO
TITLE "Dic(k)tator"
PERFORMER "Contradiction"
INDEX 00 06:33:32
INDEX 01 06:35:01
TRACK 04 AUDIO
TITLE "Disorder Unleashed"
PERFORMER "Contradiction"
INDEX 01 11:44:09
TRACK 05 AUDIO
TITLE "Pretender"
PERFORMER "Contradiction"
INDEX 00 14:59:71
INDEX 01 15:00:56
TRACK 06 AUDIO
TITLE "Lifetime"
PERFORMER "Contradiction"
INDEX 00 19:31:53
INDEX 01 19:32:35
TRACK 07 AUDIO
TITLE "Do You Wanna Die ?"
PERFORMER "Contradiction"
INDEX 00 22:24:68
INDEX 01 22:26:37
TRACK 08 AUDIO
TITLE "Land Of Insanity"
PERFORMER "Contradiction"
INDEX 00 26:54:10
INDEX 01 26:55:55
TRACK 09 AUDIO
TITLE "Scars On My Soul"
PERFORMER "Contradiction"
INDEX 00 33:31:26
INDEX 01 33:33:34
TRACK 10 AUDIO
TITLE "50% Off"
PERFORMER "Contradiction"
INDEX 00 37:41:55
INDEX 01 37:42:62
TRACK 11 AUDIO
TITLE "Voices"
PERFORMER "Contradiction"
INDEX 00 40:54:11
INDEX 01 40:55:18
TRACK 12 AUDIO
TITLE "Wake Up"
PERFORMER "Contradiction"
INDEX 00 45:13:51
INDEX 01 45:15:20


Narod.Ru


Top
 Profile E-mail  
 
 
PostPosted: 05 Nov 2011 
Прокъмитолист
User avatar
Joined: 12 Aug 2007
Posts: 6878
Lоcаtion: Санктъ-Петербуркъ
Age: 54
Name: Олекъ
:true:

_________________
прокъметол - это музыко, от которово есть прок (ы)


Top
 Profile  
 
 
PostPosted: 05 Nov 2011 
Хиппей (support team)
User avatar
Joined: 30 Jul 2007
Posts: 123186
Lоcаtion: Киев (Kyiv, UA)
Age: 48
Name: Andrey
:thanx:

mirror: MultiUp l Narod

_________________


Top
 Profile E-mail  
 
 
PostPosted: 06 Nov 2011 
консэрваторъ
User avatar
Joined: 11 Aug 2007
Posts: 17810
Lоcаtion: Псков
Age: 47
Name: Сергей
Красотища :true:

_________________
THRASH 'EM ALL


Top
 Profile E-mail  
 
 
PostPosted: 06 Nov 2011 
ТрэшЭрос
User avatar
Joined: 18 Jul 2011
Posts: 2307
Lоcаtion: Гулькевичи
Age: 46
Name: Александр
church, :thanx:
Осталось найти
- Good Company *98 (EP)
- Contraminated *03
- The Voice of Hatred *05
- The Warchitect *06
:losik:

_________________
Thrash no trash!!!


Top
 Profile E-mail  
 
 
PostPosted: 06 Nov 2011 
труъ антисионист
User avatar
Joined: 01 Aug 2007
Posts: 4544
Lоcаtion: Откуда и большинство из нас
Age: 40
Name: Дядя Вова
Димка - спасибо большое! :true:

_________________
Image
Image


Top
 Profile  
 
 
PostPosted: 06 Nov 2011 
Работнечег
User avatar
Joined: 28 Aug 2007
Posts: 6392
Lоcаtion: г. Москва
Age: 32
Name: Дима
MetallicAS wrote:
church, :thanx:
Осталось найти
- Good Company *98 (EP)
- Contraminated *03
- The Voice of Hatred *05
- The Warchitect *06
:losik:

Contraminated есть. The Voice Of Hatred я если честно не особо люблю и покупать вряд ли буду. А вот The Warchitect и Good Company поищем ещё. Ипишку правда мне кажется нереально найти.


Top
 Profile E-mail  
 
 
PostPosted: 06 Nov 2011 
Труъ
User avatar
Joined: 15 Dec 2008
Posts: 131
Lоcаtion: Донбасс
Age: 49
Name: Евгений
:true: Cпасибо, Дима!


Top
 Profile  
 
 
PostPosted: 08 Nov 2011 
ТрэшЭрос
User avatar
Joined: 18 Jul 2011
Posts: 2307
Lоcаtion: Гулькевичи
Age: 46
Name: Александр
Quote:
Contraminated есть.

:shok:

church, хде он, подскажи-и-и... :true:

_________________
Thrash no trash!!!


Top
 Profile E-mail  
 
 
PostPosted: 08 Nov 2011 
Работнечег
User avatar
Joined: 28 Aug 2007
Posts: 6392
Lоcаtion: г. Москва
Age: 32
Name: Дима
MetallicAS wrote:
Quote:
Contraminated есть.

:shok:

church, хде он, подскажи-и-и... :true:

у меня на столе) выиграл за 1 евро на немецком ебэе) постараюсь в ближайшее время выложить ;)
P.S. The Voice Of Hatred на рутрэкере лось есть, если что.


Top
 Profile E-mail  
 
 
PostPosted: 08 Nov 2011 
хард н хэвщик (support team)
User avatar
Joined: 02 Jun 2008
Posts: 16881
Lоcаtion: Н.Новгород
Age: 34
Name: Артем
church wrote:
выиграл за 1 евро

Димон, а доставка сколько ? доставка в нашу страну, кстати , была обозначена на закладке SHIPPING? или ты с немцем сам договаривался о доставке в Россиию?


Top
 Profile  
 
 
PostPosted: 08 Nov 2011 
Работнечег
User avatar
Joined: 28 Aug 2007
Posts: 6392
Lоcаtion: г. Москва
Age: 32
Name: Дима
McKagan wrote:
church wrote:
выиграл за 1 евро

Димон, а доставка сколько ? доставка в нашу страну, кстати , была обозначена на закладке SHIPPING? или ты с немцем сам договаривался о доставке в Россиию?

С доставкой проблем не было. Она изначально была и пэйпол прод принимал. Около 5 евро заплатил, точно уже не помню.


Top
 Profile E-mail  
 
 
PostPosted: 23 Jul 2012 
Труъ
User avatar
Joined: 05 Oct 2008
Posts: 194
Lоcаtion: Saint Petersburg
Age: 48
Name: Jesse
:thanx:


Top
 Profile  
 
 
PostPosted: 18 Apr 2013 
Хиппей (support team)
User avatar
Joined: 30 Jul 2007
Posts: 123186
Lоcаtion: Киев (Kyiv, UA)
Age: 48
Name: Andrey
Только подобрался к альбому...
Долго не мог привыкнуть к знакомому саунду начала 90-х - Sepultura + Slayer (но в исполнении иного коллектива) и найти у группы что-то своё, с лицом, так сказать.
Вроде нашёл, но... Тут же и забыл, что именно :oops:
Тем не менее, альбома весьма и весьма добротный :true: :true: :true:

7/10

_________________


Top
 Profile E-mail  
 
Display posts from previous:  Sort by  
Post new topic Reply to topic  [ 14 posts ] 

All times are UTC + 3 hours


Who is online

Users browsing this forum: No registered users and 1 guest


You cannot post new topics in this forum
You cannot reply to topics in this forum
You cannot edit your posts in this forum
You cannot delete your posts in this forum

Search for:
Яндекс.Метрика
cron
Powered by phpBB © 2000, 2002, 2005, 2007 phpBB Group