\m/ 80's metal \m/

Информационно-аналитический форум "80 см пыли" (In Search We Trust) "У нас никто никуда не спешит"
Me For You - http://me-4u.com
It is currently 17 Jan 2021

All times are UTC + 3 hours

Spoiler
Chat - temporary registration for foreign users (please leave your application here)







Post new topic Reply to topic  [ 4 posts ] 
Author Message
 
PostPosted: 09 Oct 2011 
Работнечег
User avatar
Joined: 28 Aug 2007
Posts: 6363
Lоcаtion: г. Москва
Age: 31
Name: Дима
Attachment:
Front.jpg
Front.jpg [ 838.88 KiB | Viewed 171 times ]

Band: Carri-On
Album: Necessary Evils
Label: Self-Released
Genre: Rock, а вообще хрен его знает, мне показалось, что и от прога малость есть кое-где :vic:
Country: USA
Format: Flac + Log + Cue + Covers
Size: 192 Mb

Line-Up:
Blaise Carafello - Bass
Freddy Neal - Rhytm and Lead Guitar
Pete Korbis - Drums
Steve Berka - Lead Guitar and Lead Vocals


Tracklist:
1. Voices 04:07
2. Ashes 04:34
3. Angry Eyes 03:30
4. Acid Reign 05:09
5. Dancin' Moonlite 04:09
6. Come Alive 04:13

LOG
Exact Audio Copy V0.99 prebeta 5 from 4. May 2009

EAC extraction logfile from 25. September 2011, 21:10

Carri-On / Necessary Evils

Used drive : PIONEER DVD-RW DVR-116D Adapter: 0 ID: 0

Read mode : Secure
Utilize accurate stream : Yes
Defeat audio cache : Yes
Make use of C2 pointers : No

Read offset correction : 96
Overread into Lead-In and Lead-Out : No
Fill up missing offset samples with silence : Yes
Delete leading and trailing silent blocks : No
Null samples used in CRC calculations : Yes
Used interface : Native Win32 interface for Win NT & 2000

Used output format : User Defined Encoder
Selected bitrate : 32 kBit/s
Quality : High
Add ID3 tag : No
Command line compressor : C:\Program Files\Exact Audio Copy\Flac\flac.exe
Additional command line options : -6 -V %s


TOC of the extracted CD

Track | Start | Length | Start sector | End sector
---------------------------------------------------------
1 | 0:00.00 | 4:09.73 | 0 | 18747
2 | 4:09.73 | 4:36.30 | 18748 | 39477
3 | 8:46.28 | 3:32.48 | 39478 | 55425
4 | 12:19.01 | 5:11.28 | 55426 | 78778
5 | 17:30.29 | 4:11.58 | 78779 | 97661
6 | 21:42.12 | 4:13.15 | 97662 | 116651


Range status and errors

Selected range

Filename D:\Музыка\Lossless\Carri-On - Necessary Evils\Carri-On - Necessary Evils.wav

Peak level 100.0 %
Range quality 100.0 %
Copy CRC BB189881
Copy OK

No errors occurred


AccurateRip summary

Track 1 not present in database
Track 2 not present in database
Track 3 not present in database
Track 4 not present in database
Track 5 not present in database
Track 6 not present in database

None of the tracks are present in the AccurateRip database

End of status report

CUE
REM GENRE Rock
REM DISCID 35061306
REM COMMENT "ExactAudioCopy v0.99pb5"
PERFORMER "Carri-On"
TITLE "Necessary Evils"
FILE "Carri-On - Necessary Evils.flac" WAVE
TRACK 01 AUDIO
TITLE "Voices"
PERFORMER "Carri-On"
FLAGS DCP
INDEX 01 00:00:00
TRACK 02 AUDIO
TITLE "Ashes"
PERFORMER "Carri-On"
FLAGS DCP
INDEX 00 04:07:73
INDEX 01 04:09:73
TRACK 03 AUDIO
TITLE "Angry Eyes"
PERFORMER "Carri-On"
FLAGS DCP
INDEX 00 08:44:28
INDEX 01 08:46:28
TRACK 04 AUDIO
TITLE "Acid Reign"
PERFORMER "Carri-On"
FLAGS DCP
INDEX 00 12:17:01
INDEX 01 12:19:01
TRACK 05 AUDIO
TITLE "Dancin' The Moonlite"
PERFORMER "Carri-On"
FLAGS DCP
INDEX 00 17:28:29
INDEX 01 17:30:29
TRACK 06 AUDIO
TITLE "Come Alive"
PERFORMER "Carri-On"
FLAGS DCP
INDEX 00 21:40:12
INDEX 01 21:42:12

spectrum
Image


Narod.Ru

И здесь за возможность послушать раритет, говорим спасибо Саше, все знают какому) Судя по всему это вот эта группа viewtopic.php?f=104&t=8212&hilit=carri+on
С первого раза мне совсем не понравилось, потом вроде расслушал более-менее, но в общем и целом не сильно понравилось, пожалуй Dancin' Moonlite можно выделить)


Top
 Profile E-mail  
 
 
PostPosted: 09 Oct 2011 
А может смените мне статус?..
User avatar
Joined: 06 Sep 2007
Posts: 860
Lоcаtion: СПб
Age: 65
Name: Сергей
:thanx:


Top
 Profile  
 
 
PostPosted: 10 Oct 2011 
Хиппей (support team)
User avatar
Joined: 30 Jul 2007
Posts: 119777
Lоcаtion: Киев (Kyiv, UA)
Age: 47
Name: Andrey
:thanx:

mirror: Speedy l Narod

_________________


Top
 Profile E-mail  
 
 
PostPosted: 10 Oct 2011 
хард н хэвщик (support team)
User avatar
Joined: 02 Jun 2008
Posts: 16881
Lоcаtion: Н.Новгород
Age: 33
Name: Артем
Спасибке мужики !!! :true: :true: :true:


Top
 Profile  
 
Display posts from previous:  Sort by  
Post new topic Reply to topic  [ 4 posts ] 

All times are UTC + 3 hours


Who is online

Users browsing this forum: No registered users and 2 guests


You cannot post new topics in this forum
You cannot reply to topics in this forum
You cannot edit your posts in this forum
You cannot delete your posts in this forum
You cannot post attachments in this forum

Search for:
Яндекс.Метрика
cron
Powered by phpBB © 2000, 2002, 2005, 2007 phpBB Group