\m/ 80's metal \m/

Информационно-аналитический форум "80 см пыли" (In Search We Trust) "У нас никто никуда не спешит"
Железнодорожная биржа - RailAgent
It is currently 26 Apr 2017

All times are UTC + 3 hours

Spoiler
Chat - temporary registration for foreign users (please leave your application here)







Post new topic Reply to topic  [ 70 posts ]  Go to page Previous  1, 2, 3, 4
Author Message
 
PostPosted: 11 Apr 2017 
Хиппей (support team)
User avatar
Joined: 30 Jul 2007
Posts: 88751
Lоcаtion: Киев (Kyiv, UA)
Age: 43
Name: Andrey
:thanx:

mirror: Narod l M-Cloud

Ага, то был БэндКэмповский лось... :lloo:

_________________


Top
 Profile E-mail  
 
 
PostPosted: 19 Apr 2017 
консэрваторъ
User avatar
Joined: 11 Aug 2007
Posts: 13019
Lоcаtion: Псков
Age: 43
Name: Сергей
Неа... то был Митьковский лось...
Опаньке. А чего у меня в списке этот альбом уже помечен, как перезалитый 3 августа 2014 года?.. :scratch:

:arrov: viewtopic.php?p=215264#p215264 задвоилось... :pardon:

_________________
THRASH 'EM ALL


Top
 Profile E-mail  
 
 
PostPosted: 19 Apr 2017 
Хиппей (support team)
User avatar
Joined: 30 Jul 2007
Posts: 88751
Lоcаtion: Киев (Kyiv, UA)
Age: 43
Name: Andrey
splatty wrote:
Неа... то был Митьковский лось...

splatty wrote:
задвоилось...

Ага, точно. Я его просто зафлакал.

_________________


Top
 Profile E-mail  
 
 
PostPosted: 20 Apr 2017 
Хиппей (support team)
User avatar
Joined: 30 Jul 2007
Posts: 88751
Lоcаtion: Киев (Kyiv, UA)
Age: 43
Name: Andrey
Image

_________________


Top
 Profile E-mail  
 
 
PostPosted: 20 Apr 2017 
Я набрал 1000 сообщений!
User avatar
Joined: 03 Oct 2008
Posts: 2924
Lоcаtion: Ханты-Мансийский АО
Age: 42
Name: Сергей
Японец нового альбома на трэкере...


Top
 Profile  
 
 
PostPosted: 20 Apr 2017 
консэрваторъ
User avatar
Joined: 11 Aug 2007
Posts: 13019
Lоcаtion: Псков
Age: 43
Name: Сергей
:lob: :lob: :lob: :lob: :lob: :lob: :lob: :lob: Всё, всем спасибо, расходимся огородами!.. :true: :true: :true: :true: :meloman: :meloman: :meloman: :meloman:

_________________
THRASH 'EM ALL


Top
 Profile E-mail  
 
 
PostPosted: 20 Apr 2017 
дядя Миша
User avatar
Joined: 17 Oct 2008
Posts: 2413
Lоcаtion: USSR
Age: 54
Name: Khy
Японец нового альбома на трэкере...
ага и магазине давно.


Top
 Profile  
 
 
PostPosted: 20 Apr 2017 
Хиппей (support team)
User avatar
Joined: 30 Jul 2007
Posts: 88751
Lоcаtion: Киев (Kyiv, UA)
Age: 43
Name: Andrey
thorbeorn wrote:
Японец нового альбома на трэкере...

:thanx:

А я ещё ж ответа от музыкантов подожду :lloo:

_________________


Top
 Profile E-mail  
 
 
PostPosted: 20 Apr 2017 
Хиппей (support team)
User avatar
Joined: 30 Jul 2007
Posts: 88751
Lоcаtion: Киев (Kyiv, UA)
Age: 43
Name: Andrey
Chronosphere 2017 - Red N' Roll (Japanese Edition) - (EAC-FLAC)

mirror: Depos l Narod l M-Cloud

pics
Image

Image

Image

Image

Image

Image

Image

Image

Image

Image

Image

Image

Image

Image

Image

Image

Image

Image


log
Exact Audio Copy V1.3 from 2. September 2016

EAC extraction logfile from 19. April 2017, 19:26

Chronosphere / Red N' Roll (Japan)

Used drive : ATAPI iHAS122 W Adapter: 2 ID: 0

Read mode : Secure
Utilize accurate stream : Yes
Defeat audio cache : Yes
Make use of C2 pointers : No

Read offset correction : 48
Overread into Lead-In and Lead-Out : No
Fill up missing offset samples with silence : Yes
Delete leading and trailing silent blocks : No
Null samples used in CRC calculations : Yes
Used interface : Installed external ASPI interface

Used output format : User Defined Encoder
Selected bitrate : 1024 kBit/s
Quality : High
Add ID3 tag : No
Command line compressor : C:\Program Files\FLAC\flac.exe
Additional command line options : -V -8 -T "Date=%year%" -T "Genre=%genre%" -T"COMMENT=Ripped by Ilijan - ilko" -8 -V %source%


TOC of the extracted CD

Track | Start | Length | Start sector | End sector
---------------------------------------------------------
1 | 0:00.00 | 2:12.72 | 0 | 9971
2 | 2:12.72 | 4:39.69 | 9972 | 30965
3 | 6:52.66 | 3:33.29 | 30966 | 46969
4 | 10:26.20 | 4:23.15 | 46970 | 66709
5 | 14:49.35 | 4:10.18 | 66710 | 85477
6 | 18:59.53 | 4:01.72 | 85478 | 103624
7 | 23:01.50 | 4:33.57 | 103625 | 124156
8 | 27:35.32 | 4:06.20 | 124157 | 142626
9 | 31:41.52 | 3:44.45 | 142627 | 159471
10 | 35:26.22 | 5:13.11 | 159472 | 182957
11 | 40:39.33 | 5:16.05 | 182958 | 206662
12 | 45:55.38 | 4:21.19 | 206663 | 226256


Range status and errors

Selected range

Filename D:\ilko\Chronosphere - Red N' Roll (Japan).wav

Peak level 100.0 %
Extraction speed 4.0 X
Range quality 100.0 %
Test CRC 95E36B98
Copy CRC 95E36B98
Copy OK

No errors occurred


AccurateRip summary

Track 1 not present in database
Track 2 not present in database
Track 3 not present in database
Track 4 not present in database
Track 5 not present in database
Track 6 not present in database
Track 7 not present in database
Track 8 not present in database
Track 9 not present in database
Track 10 not present in database
Track 11 not present in database
Track 12 not present in database

None of the tracks are present in the AccurateRip database

End of status report

---- CUETools DB Plugin V2.1.6

[CTDB TOCID: p0EYMiaFKfteuSUoFb2gjg7Gw3c-] disk not present in database
Submit result: p0EYMiaFKfteuSUoFb2gjg7Gw3c- has been uploaded


==== Log checksum EF442B5CF62DFA34277CA3EB16125FACBA36BE467387741AABC1ACDC1C980277 ====

cue
REM GENRE "Thrash Metal"
REM DATE 2017
REM DISCID 980BC80C
REM COMMENT "ExactAudioCopy v1.3"
PERFORMER "Chronosphere"
TITLE "Red N' Roll (Japan)"
FILE "Chronosphere - Red N' Roll (Japan).flac" WAVE
TRACK 01 AUDIO
TITLE "Alu Card"
PERFORMER "Chronosphere"
INDEX 01 00:00:00
TRACK 02 AUDIO
TITLE "Demonized"
PERFORMER "Chronosphere"
INDEX 01 02:12:72
TRACK 03 AUDIO
TITLE "Before It's Gone"
PERFORMER "Chronosphere"
INDEX 00 06:50:66
INDEX 01 06:52:66
TRACK 04 AUDIO
TITLE "Picking Up My Pieces"
PERFORMER "Chronosphere"
INDEX 00 10:24:20
INDEX 01 10:26:20
TRACK 05 AUDIO
TITLE "Be The Best"
PERFORMER "Chronosphere"
INDEX 00 14:47:35
INDEX 01 14:49:35
TRACK 06 AUDIO
TITLE "The Force To Put An End"
PERFORMER "Chronosphere"
INDEX 00 18:57:53
INDEX 01 18:59:53
TRACK 07 AUDIO
TITLE "Honest To Kill"
PERFORMER "Chronosphere"
INDEX 00 22:59:50
INDEX 01 23:01:50
TRACK 08 AUDIO
TITLE "Wolves Out Of Cage"
PERFORMER "Chronosphere"
INDEX 01 27:35:32
TRACK 09 AUDIO
TITLE "Warriors"
PERFORMER "Chronosphere"
INDEX 00 31:39:52
INDEX 01 31:41:52
TRACK 10 AUDIO
TITLE "Portal To The Underworld"
PERFORMER "Chronosphere"
INDEX 00 35:24:22
INDEX 01 35:26:22
TRACK 11 AUDIO
TITLE "Damage, Inc. (Bonus Track)"
PERFORMER "Chronosphere"
INDEX 00 40:37:33
INDEX 01 40:39:33
TRACK 12 AUDIO
TITLE "Picking Up My Pieces (Drums & Bass Track) (Bonus Track)"
PERFORMER "Chronosphere"
INDEX 00 45:53:38
INDEX 01 45:55:38

_________________


Top
 Profile E-mail  
 
 
PostPosted: 20 Apr 2017 
Хиппей (support team)
User avatar
Joined: 30 Jul 2007
Posts: 88751
Lоcаtion: Киев (Kyiv, UA)
Age: 43
Name: Andrey
Бонусы.
Кавер на Метлу хорош, но ужат немного и весьма близок к оригиналу, а потому не зацепил. А вот драмэндбасовый кавер весьма понравился :kro: :kro: :kro:

_________________


Top
 Profile E-mail  
 
Display posts from previous:  Sort by  
Post new topic Reply to topic  [ 70 posts ]  Go to page Previous  1, 2, 3, 4

All times are UTC + 3 hours


Who is online

Users browsing this forum: No registered users and 2 guests


You cannot post new topics in this forum
You cannot reply to topics in this forum
You cannot edit your posts in this forum
You cannot delete your posts in this forum
You cannot post attachments in this forum

Search for:
Яндекс.Метрика
Powered by phpBB © 2000, 2002, 2005, 2007 phpBB Group