\m/ 80's metal \m/

Информационно-аналитический форум "80 см пыли" (In Search We Trust) "У нас никто никуда не спешит"
Me For You - http://me-4u.com
It is currently 18 Oct 2018

All times are UTC + 3 hours

Spoiler
Chat - temporary registration for foreign users (please leave your application here)







Post new topic Reply to topic  [ 12 posts ] 
Author Message
 
PostPosted: 29 Aug 2011 
Работнечег
User avatar
Joined: 28 Aug 2007
Posts: 5468
Lоcаtion: г. Москва
Age: 29
Name: Дима
Image

Band: Bastard
Album: Falling To Pieces
Label: Bee Records
Genre: Heavy Metal
Country: Germany
Format: Flac + Log + Cue/ Mp3@320 + Covers
Size: 390 Mb/ 133 Mb

Line-Up:
Dirk Gauer - Guitar, Vocals
Frank Becker - Guitar, Acoustic Guitar, Vocals, Harp
Mats Liesen - Bass
Karsten Wernet - Drums


Tracklist:
1. The Tide Is Changing 03:54
2. Victim Of Society 04:20
3. Down 04:12
4. Where I Belong 05:05
5. Escape 04:33
6. Breaking Circles 05:44
7. Me And My Pride 03:47
8. Too Much Trouble 06:21
9. Time Will Save You 03:55
10. Seven Seals 13:19

LOG
Exact Audio Copy V0.99 prebeta 5 from 4. May 2009

EAC extraction logfile from 18. August 2011, 23:54

Bastard / Falling To Pieces

Used drive : PIONEER DVD-RW DVR-116D Adapter: 0 ID: 0

Read mode : Secure
Utilize accurate stream : Yes
Defeat audio cache : Yes
Make use of C2 pointers : No

Read offset correction : 96
Overread into Lead-In and Lead-Out : No
Fill up missing offset samples with silence : Yes
Delete leading and trailing silent blocks : No
Null samples used in CRC calculations : Yes
Used interface : Native Win32 interface for Win NT & 2000

Used output format : User Defined Encoder
Selected bitrate : 32 kBit/s
Quality : High
Add ID3 tag : No
Command line compressor : C:\Program Files\Exact Audio Copy\Flac\flac.exe
Additional command line options : -6 -V %s


TOC of the extracted CD

Track | Start | Length | Start sector | End sector
---------------------------------------------------------
1 | 0:00.30 | 3:53.65 | 30 | 17569
2 | 3:54.20 | 4:19.53 | 17570 | 37047
3 | 8:13.73 | 4:12.06 | 37048 | 55953
4 | 12:26.04 | 5:05.32 | 55954 | 78860
5 | 17:31.36 | 4:33.01 | 78861 | 99336
6 | 22:04.37 | 5:43.49 | 99337 | 125110
7 | 27:48.11 | 3:46.62 | 125111 | 142122
8 | 31:34.73 | 6:20.72 | 142123 | 170694
9 | 37:55.70 | 3:55.07 | 170695 | 188326
10 | 41:51.02 | 13:18.43 | 188327 | 248219


Range status and errors

Selected range

Filename D:\Музыка\Lossless\Bastard - Falling To Pieces (1998)\Bastard - Falling To Pieces.wav

Peak level 99.7 %
Range quality 99.9 %
Copy CRC 9BC35C1F
Copy OK

No errors occurred


AccurateRip summary

Track 1 not present in database
Track 2 not present in database
Track 3 not present in database
Track 4 not present in database
Track 5 not present in database
Track 6 not present in database
Track 7 not present in database
Track 8 not present in database
Track 9 not present in database
Track 10 not present in database

None of the tracks are present in the AccurateRip database

End of status report

CUE
REM GENRE "Heavy Metal"
REM DATE 1998
REM DISCID 8A0CED0A
REM COMMENT "ExactAudioCopy v0.99pb5"
PERFORMER "Bastard"
TITLE "Falling To Pieces"
FILE "Bastard - Falling To Pieces.flac" WAVE
TRACK 01 AUDIO
TITLE "The Tide Is Changing"
PERFORMER "Bastard"
INDEX 00 00:00:00
INDEX 01 00:00:30
TRACK 02 AUDIO
TITLE "Victim Of Society"
PERFORMER "Bastard"
INDEX 01 03:54:20
TRACK 03 AUDIO
TITLE "Down"
PERFORMER "Bastard"
INDEX 01 08:13:73
TRACK 04 AUDIO
TITLE "Where I Belong"
PERFORMER "Bastard"
INDEX 01 12:26:04
TRACK 05 AUDIO
TITLE "Escape"
PERFORMER "Bastard"
INDEX 01 17:31:36
TRACK 06 AUDIO
TITLE "Breaking Circles"
PERFORMER "Bastard"
INDEX 01 22:04:37
TRACK 07 AUDIO
TITLE "Me And My Pride"
PERFORMER "Bastard"
INDEX 01 27:48:11
TRACK 08 AUDIO
TITLE "Too Much Trouble"
PERFORMER "Bastard"
INDEX 01 31:34:73
TRACK 09 AUDIO
TITLE "Time Will Save You"
PERFORMER "Bastard"
INDEX 01 37:55:70
TRACK 10 AUDIO
TITLE "Seven Seals"
PERFORMER "Bastard"
INDEX 01 41:51:02


FLAC
MP3@320 kbps

Замечательный альбом, за предоставленный диск говорим спасибо Саше spryt777!


Top
 Profile E-mail  
 
 
PostPosted: 29 Aug 2011 
Хиппей (support team)
User avatar
Joined: 30 Jul 2007
Posts: 106975
Lоcаtion: Киев (Kyiv, UA)
Age: 45
Name: Andrey
О! Снова клеточки :shok:
Спасибо, Димка и Саня :true:

mirror: MultiUp l Narod

_________________


Top
 Profile E-mail  
 
 
PostPosted: 29 Aug 2011 
Прокъмитолист
User avatar
Joined: 12 Aug 2007
Posts: 6488
Lоcаtion: Санктъ-Петербуркъ
Age: 51
Name: Олекъ
спасибо, парни! :thanx: забираем :true:

_________________
прокъметол - это музыко, от которово есть прок (ы)


Top
 Profile  
 
 
PostPosted: 29 Aug 2011 
Персональный статус
Joined: 23 Sep 2009
Posts: 204
Name: henk
thanks a lot


Top
 Profile E-mail  
 
 
PostPosted: 29 Aug 2011 
спирт 100%
User avatar
Joined: 22 Sep 2008
Posts: 4302
Age: 47
Name: Саня
:true: :true: :true:


Top
 Profile  
 
 
PostPosted: 29 Aug 2011 
хард н хэвщик (support team)
User avatar
Joined: 02 Jun 2008
Posts: 16880
Lоcаtion: Н.Новгород
Age: 31
Name: Артем
вау !!! спасибо за выполнение моего запроса !!


Top
 Profile  
 
 
PostPosted: 29 Aug 2011 
Доктор энтомологии
User avatar
Joined: 22 Jan 2009
Posts: 9381
Lоcаtion: Даугавпилс
Age: 43
Name: Алексей
Большое спасибо :thanx: Ознакомимся на досуге


Top
 Profile  
 
 
PostPosted: 30 Aug 2011 
ТрэшЭрос
User avatar
Joined: 18 Jul 2011
Posts: 2296
Lоcаtion: Гулькевичи
Age: 43
Name: Александр
:thanx:

_________________
Thrash no trash!!!


Top
 Profile E-mail  
 
 
PostPosted: 17 Oct 2011 
Power Metal Maniac
User avatar
Joined: 09 Aug 2008
Posts: 6317
Lоcаtion: Москва
Age: 40
Name: Егор
:thanx:

_________________
Long Live Metal!


Top
 Profile  
 
 
PostPosted: 17 Oct 2011 
Персональный статус
Joined: 19 Jul 2010
Posts: 282
Lоcаtion: Москва
Name: Вадим
Спасибо. Ни разу не слышал, нужно ознакомиться.


Top
 Profile E-mail  
 
 
PostPosted: 18 Oct 2011 
Я набрал 1000 сообщений!
Joined: 24 Oct 2009
Posts: 2060
Lоcаtion: Оренбург
Age: 55
Name: Юра
Тоже слухану. Спасибочки ребятки! :true:

_________________
:dash: I am happy!


Top
 Profile E-mail  
 
 
PostPosted: 28 Oct 2011 
Труъ
Joined: 01 Jan 2010
Posts: 118
Lоcаtion: MetaLWarrioR
Name: Сергей
Большое спасибо!


Top
 Profile E-mail  
 
Display posts from previous:  Sort by  
Post new topic Reply to topic  [ 12 posts ] 

All times are UTC + 3 hours


Who is online

Users browsing this forum: No registered users and 1 guest


You cannot post new topics in this forum
You cannot reply to topics in this forum
You cannot edit your posts in this forum
You cannot delete your posts in this forum
You cannot post attachments in this forum

Search for:
Яндекс.Метрика
Powered by phpBB © 2000, 2002, 2005, 2007 phpBB Group