\m/ 80's metal \m/

Информационно-аналитический форум "80 см пыли" (In Search We Trust) "У нас никто никуда не спешит"
Me For You - http://me-4u.com
It is currently 15 Dec 2018

All times are UTC + 3 hours

Spoiler
Chat - temporary registration for foreign users (please leave your application here)







Post new topic Reply to topic  [ 4 posts ] 
Author Message
 
PostPosted: 24 Aug 2011 
Хиппей (support team)
User avatar
Joined: 30 Jul 2007
Posts: 108919
Lоcаtion: Киев (Kyiv, UA)
Age: 45
Name: Andrey
Bifrost - 1996 - The Wildest Fire [ape]

Attachment:
Bifrost - The Wildest Fire - booklet 1-12.jpg
Bifrost - The Wildest Fire - booklet 1-12.jpg [ 2.23 MiB | Viewed 114 times ]


Genre: Modern Thrash Metal/Death/Doom
Location: Holland
Format: ape+cue+log+scans
Size: 379 Mb



    1. The Dark in the Past (Intro) - 01:47
    2. Heathen Apotheosis - 04:49
    3. I Suffer in Silence - 05:20
    4. Blood in My Veins - 04:26
    5. Do I Decide Dreams? - 06:37
    6. Beyond the Border of Solitude... - 02:15
    7. Midwinter Celebration - 05:19
    8. The Midgard Drama - 05:39
    9. Eburonic Pride - 05:15
    10. My Wicked Smile - 04:11
    11. The Wildest Fire - 03:46
    12. The Bright in the Future (Outro) - 03:05

    TPT: 52:29

MultiUp l Narod

Лося давно заказывали, но как-то так никто и не залил :vic:

Мне альбом не понравился :pardon: Аритмичный современный трэшаковый дум, с порыкивающим вокалом (и иногда и откровенно ноющим думовым). Тем паче, скоростных вещей совсем мизер :yyy:
В общем, не моей колбасы... палка :shok: И не совсем формат форума. Такое нада постить и запрашивать на "90см ржавчины" - http://90s.takemetal.com :cow:
Местами очень напоминает почти всеми любимый Lake Of Tears. Но.... только напоминает.

3/10

Thanx to Vlad62 from MMT :thanx:

log
EAC extraction logfile from 16. June 2008, 0:52 for CD
Bifrost / The Wildest Fire

Used drive : Optiarc DVD RW AD-7203S Adapter: 2 ID: 0
Read mode : Secure with NO C2, accurate stream, disable cache
Read offset correction : 48
Overread into Lead-In and Lead-Out : No

Used output format : C:\Program Files\Exact Audio Copy\MAC.exe (Monkey's Audio Lossless Encoder)
High Lossless Compression

Other options :
Fill up missing offset samples with silence : Yes
Delete leading and trailing silent blocks : No
Installed external ASPI interface


Range status and errors
Selected range
Filename C:\CD\Rips\CDImage.wav

Peak level 99.9 %
Range quality 100.0 %
CRC 29F7CBA1
Copy OK

No errors occured

End of status report


cue
PERFORMER "Bifrost"
TITLE "The Wildest Fire"
FILE "CDImage.ape" WAVE
TRACK 01 AUDIO
TITLE "The Dark In The Past"
PERFORMER "Bifrost"
FLAGS DCP
INDEX 01 00:00:00
TRACK 02 AUDIO
TITLE "Heathen Apotheosis"
PERFORMER "Bifrost"
FLAGS DCP
INDEX 01 01:47:71
TRACK 03 AUDIO
TITLE "I Suffer In Silence"
PERFORMER "Bifrost"
FLAGS DCP
INDEX 00 06:35:19
INDEX 01 06:36:64
TRACK 04 AUDIO
TITLE "Blood In My Veins"
PERFORMER "Bifrost"
FLAGS DCP
INDEX 00 11:54:47
INDEX 01 11:56:17
TRACK 05 AUDIO
TITLE "Do I Decide Dreams"
PERFORMER "Bifrost"
FLAGS DCP
INDEX 00 16:20:59
INDEX 01 16:22:29
TRACK 06 AUDIO
TITLE "Beyond The Border Of Solitude"
PERFORMER "Bifrost"
FLAGS DCP
INDEX 00 22:58:15
INDEX 01 22:59:60
TRACK 07 AUDIO
TITLE "Midwinter Celebration"
PERFORMER "Bifrost"
FLAGS DCP
INDEX 00 25:12:37
INDEX 01 25:14:07
TRACK 08 AUDIO
TITLE "The Midgard Drama"
PERFORMER "Bifrost"
FLAGS DCP
INDEX 00 30:31:68
INDEX 01 30:33:38
TRACK 09 AUDIO
TITLE "Eburonic Pride"
PERFORMER "Bifrost"
FLAGS DCP
INDEX 00 36:11:02
INDEX 01 36:12:47
TRACK 10 AUDIO
TITLE "My Wicked Smile"
PERFORMER "Bifrost"
FLAGS DCP
INDEX 00 41:25:59
INDEX 01 41:27:29
TRACK 11 AUDIO
TITLE "The Wildest Fire"
PERFORMER "Bifrost"
FLAGS DCP
INDEX 00 45:37:07
INDEX 01 45:38:52
TRACK 12 AUDIO
TITLE "The Bright In The Future"
PERFORMER "Bifrost"
FLAGS DCP
INDEX 00 49:23:08
INDEX 01 49:24:53

_________________


Top
 Profile E-mail  
 
 
PostPosted: 25 Aug 2011 
Генеральный thrasher
User avatar
Joined: 03 Oct 2008
Posts: 3537
Lоcаtion: Ханты-Мансийский АО
Age: 43
Name: Сергей
Послушаем...что это такое.


Top
 Profile  
 
 
PostPosted: 25 Aug 2011 
Я набрал 1000 сообщений!
User avatar
Joined: 25 Dec 2008
Posts: 1545
Age: 43
Name: Павел
А дебютник вроде совсем неплох был... :umnik:


Top
 Profile  
 
 
PostPosted: 25 Aug 2011 
Хиппей (support team)
User avatar
Joined: 30 Jul 2007
Posts: 108919
Lоcаtion: Киев (Kyiv, UA)
Age: 45
Name: Andrey
Да и этот неплох, просто он неформатный для форума. Чета не ожидал, что это, по сути, дум обычный, но никак не трэш. Явно везде группу путают с ... Byfrost :crazy: http://www.metal-archives.com/bands/Byfrost/3540264908

_________________


Top
 Profile E-mail  
 
Display posts from previous:  Sort by  
Post new topic Reply to topic  [ 4 posts ] 

All times are UTC + 3 hours


Who is online

Users browsing this forum: No registered users and 3 guests


You cannot post new topics in this forum
You cannot reply to topics in this forum
You cannot edit your posts in this forum
You cannot delete your posts in this forum
You cannot post attachments in this forum

Search for:
Яндекс.Метрика
Powered by phpBB © 2000, 2002, 2005, 2007 phpBB Group