\m/ 80's metal \m/

Информационно-аналитический форум "80 см пыли" (In Search We Trust) "У нас никто никуда не спешит"
Me For You - http://me-4u.com
It is currently 15 Dec 2018

All times are UTC + 3 hours

Spoiler
Chat - temporary registration for foreign users (please leave your application here)







Post new topic Reply to topic  [ 6 posts ] 
Author Message
 
PostPosted: 21 Aug 2011 
Генеральный thrasher
User avatar
Joined: 03 Oct 2008
Posts: 3537
Lоcаtion: Ханты-Мансийский АО
Age: 43
Name: Сергей
Image

Year:2002
Style:Thrash Metal
Country:Serbia
Audio:Flac+Cue+Log+Scans
Size:228Mb
Label:Utterly Somber Creations

Line-Up:
Neso - vocals
Jaksa "Jakuza" Vlahovic - guitar
Predrag "Predo" Saric - bass
Rastko "Rale" Licina - guitar
Milan "Mikag" Jankovic - drums

Tracklist:
1. Farmaceut 02:20
2. Novo Meso 02:58
3. Moj Bol 02:11
4. Kula Tajni 03:17
5. Osveta 03:40
6. Zadah Zemlje 02:55
7. Spas 03:10
8. Morbidna Stvarnost 02:54
9. Istina 01:55
10. Ledena Krv 04:29
Bonus Tracks:
11. Bez Milosti
12. Princeza

Cue
REM GENRE "Thrash Metal"
REM DATE 2002
REM DISCID 8509030C
REM COMMENT "ExactAudioCopy v0.99pb5"
PERFORMER "Bombarder"
TITLE "Ledena Krv"
FILE "Bombarder - Ledena Krv.flac" WAVE
TRACK 01 AUDIO
TITLE "Farmaceut"
PERFORMER "Bombarder"
FLAGS DCP
INDEX 01 00:00:00
TRACK 02 AUDIO
TITLE "Novo Meso"
PERFORMER "Bombarder"
FLAGS DCP
INDEX 01 02:20:36
TRACK 03 AUDIO
TITLE "Moj Bol"
PERFORMER "Bombarder"
FLAGS DCP
INDEX 01 05:18:70
TRACK 04 AUDIO
TITLE "Kula Tajni"
PERFORMER "Bombarder"
FLAGS DCP
INDEX 01 07:30:17
TRACK 05 AUDIO
TITLE "Osveta"
PERFORMER "Bombarder"
FLAGS DCP
INDEX 01 10:48:12
TRACK 06 AUDIO
TITLE "Zadah Zemlje"
PERFORMER "Bombarder"
FLAGS DCP
INDEX 01 14:28:18
TRACK 07 AUDIO
TITLE "Spas"
PERFORMER "Bombarder"
FLAGS DCP
INDEX 01 17:23:70
TRACK 08 AUDIO
TITLE "Morbidna Stvarnost"
PERFORMER "Bombarder"
FLAGS DCP
INDEX 01 20:34:70
TRACK 09 AUDIO
TITLE "Istina"
PERFORMER "Bombarder"
FLAGS DCP
INDEX 01 23:29:24
TRACK 10 AUDIO
TITLE "Ledena Krv"
PERFORMER "Bombarder"
FLAGS DCP
INDEX 01 25:24:37
TRACK 11 AUDIO
TITLE "Bez Milosti"
PERFORMER "Bombarder"
FLAGS DCP
INDEX 01 29:54:05
TRACK 12 AUDIO
TITLE "Princeza"
PERFORMER "Bombarder"
FLAGS DCP
INDEX 01 34:26:37


Log
Exact Audio Copy V0.99 prebeta 5 from 4. May 2009

Отчёт EAC об извлечении, выполненном 15. июля 2011, 19:24

Bombarder / Ledena Krv

Дисковод: TSSTcorpCDDVDW SH-S202N Adapter: 0 ID: 1

Режим чтения : Достоверность
Использование точного потока : Да
Отключение кэша аудио : Да
Использование указателей C2 : Нет

Коррекция смещения при чтении : 6
Способность читать области Lead-in и Lead-out : Нет
Заполнение пропущенных сэмплов тишиной : Да
Удаление блоков с тишиной в начале и конце : Нет
При вычислениях CRC использовались нулевые сэмплы : Да
Интерфейс : Встроенный Win32-интерфейс для Win NT/2000

Выходной формат : Пользовательский кодировщик
Выбранный битрейт : 768 kBit/s
Качество : Высокий
Добавление ID3-тэга : Нет
Утилита сжатия : C:\Program Files\Exact Audio Copy\FLAC\FLAC.EXE
Дополнительные параметры : -6 -V -T "ARTIST=%a" -T "TITLE=%t" -T "ALBUM=%g" -T "DATE=%y" -T "TRACKNUMBER=%n" -T "GENRE=%m" -T "COMMENT=%e" %s -o %d


TOC извлечённого CD

Трек | Старт | Длительность | Начальный сектор | Конечный сектор
---------------------------------------------------------------------
1 | 0:00.00 | 2:20.36 | 0 | 10535
2 | 2:20.36 | 2:58.34 | 10536 | 23919
3 | 5:18.70 | 2:11.22 | 23920 | 33766
4 | 7:30.17 | 3:17.70 | 33767 | 48611
5 | 10:48.12 | 3:40.06 | 48612 | 65117
6 | 14:28.18 | 2:55.52 | 65118 | 78294
7 | 17:23.70 | 3:11.00 | 78295 | 92619
8 | 20:34.70 | 2:54.29 | 92620 | 105698
9 | 23:29.24 | 1:55.13 | 105699 | 114336
10 | 25:24.37 | 4:29.43 | 114337 | 134554
11 | 29:54.05 | 4:32.32 | 134555 | 154986
12 | 34:26.37 | 4:01.08 | 154987 | 173069


Характеристики диапазона извлечения и сообщения об ошибках

Выбранный диапазон

Имя файла E:\Лоси\B\Bombarder - Ledena Krv.wav

Пиковый уровень 71.8 %
Качество диапазона 100.0 %
CRC копии 1E4CBA38
Копирование... OK

Ошибок не произошло


AccurateRip: сводка

Трек 1 точное извлечение (доверие 1) [F4A75360]
Трек 2 точное извлечение (доверие 1) [1F169F65]
Трек 3 точное извлечение (доверие 1) [9EE00E24]
Трек 4 точное извлечение (доверие 1) [6116DEF1]
Трек 5 точное извлечение (доверие 1) [1C27DEA2]
Трек 6 точное извлечение (доверие 1) [EAFABDF6]
Трек 7 точное извлечение (доверие 1) [DD32C578]
Трек 8 точное извлечение (доверие 1) [987E1A5A]
Трек 9 точное извлечение (доверие 1) [38B2A761]
Трек 10 точное извлечение (доверие 1) [5666CBEB]
Трек 11 точное извлечение (доверие 1) [0F74D14E]
Трек 12 точное извлечение (доверие 1) [6BB06EEF]

Все треки извлечены точно

Конец отчёта


Ledena Krv


Top
 Profile  
 
 
PostPosted: 21 Aug 2011 
Генеральный thrasher
User avatar
Joined: 03 Oct 2008
Posts: 3537
Lоcаtion: Ханты-Мансийский АО
Age: 43
Name: Сергей
Есть и 2010 год.Нужна ссылка - пишите в личку.


Top
 Profile  
 
 
PostPosted: 21 Aug 2011 
Прокъмитолист
User avatar
Joined: 12 Aug 2007
Posts: 6514
Lоcаtion: Санктъ-Петербуркъ
Age: 51
Name: Олекъ
и здесь спасибо :thanx:

_________________
прокъметол - это музыко, от которово есть прок (ы)


Top
 Profile  
 
 
PostPosted: 21 Aug 2011 
ТрэшЭрос
User avatar
Joined: 18 Jul 2011
Posts: 2300
Lоcаtion: Гулькевичи
Age: 43
Name: Александр
Серёж, большое :thanx: и :true: :true: :true:

_________________
Thrash no trash!!!


Top
 Profile E-mail  
 
 
PostPosted: 21 Aug 2011 
Хиппей (support team)
User avatar
Joined: 30 Jul 2007
Posts: 108944
Lоcаtion: Киев (Kyiv, UA)
Age: 45
Name: Andrey
:thanx:
mirror: MultiUp l Narod

_________________


Top
 Profile E-mail  
 
 
PostPosted: 19 Jun 2014 
Трешер
User avatar
Joined: 25 Feb 2011
Posts: 1062
Lоcаtion: Харьков
Age: 42
Name: Aleksandr
:thanx: срочно освобождаю место на винтах!


Top
 Profile E-mail  
 
Display posts from previous:  Sort by  
Post new topic Reply to topic  [ 6 posts ] 

All times are UTC + 3 hours


Who is online

Users browsing this forum: No registered users and 2 guests


You cannot post new topics in this forum
You cannot reply to topics in this forum
You cannot edit your posts in this forum
You cannot delete your posts in this forum
You cannot post attachments in this forum

Search for:
Яндекс.Метрика
Powered by phpBB © 2000, 2002, 2005, 2007 phpBB Group