\m/ 80's metal \m/

Информационно-аналитический форум "80 см пыли" (In Search We Trust) "У нас никто никуда не спешит"
Me For You - http://me-4u.com
It is currently 16 Dec 2018

All times are UTC + 3 hours

Spoiler
Chat - temporary registration for foreign users (please leave your application here)







Post new topic Reply to topic  [ 15 posts ] 
Author Message
 
PostPosted: 29 Jun 2011 
Работнечег
User avatar
Joined: 28 Aug 2007
Posts: 5606
Lоcаtion: г. Москва
Age: 29
Name: Дима
Image

Band: Breaker
Album: Dead Rider
Year: 1985
Label: Cult Metal Claasics
Genre: Heavy Metal
Coutry: Germany
Format: Flac + Log + Cue + Covers
Size: 410 Mb

Line-Up:
Thorsten Feisel - Bass
Volker Borchert - Drums (ex-Accu§er, ex-Die Krupps)
Eberhard Weyel - Guitars / Vocals (ex-Accu§er)
Bertram Kölsch - Guitars (ex-Area)


Tracklist:
1. Run for Your Life - 04:38
2. Born to Rock - 05:08
3. Dead Rider - 03:24
4. Shout Out Loud - 03:06
5. Cold Hearted Woman - 04:21
6. Rapist Killer - 03:22
7. Street Fighter - 03:53
8. Lucifer's Dream - 04:01
9. Out of Control - 03:48
10. Together We Are Strong - 05:29
11. Evil Liar (Bonus) - 06:01
12. Down By Law (Bonus) - 07:22
13. Screaming For Guilty (Bonus) - 04:05
14. Law Of War (Bonus) - 04:13

LOG
Exact Audio Copy V0.99 prebeta 5 from 4. May 2009

EAC extraction logfile from 27. June 2011, 11:13

Breaker / Dead Rider

Used drive : PIONEER DVD-RW DVR-116D Adapter: 0 ID: 0

Read mode : Secure
Utilize accurate stream : Yes
Defeat audio cache : Yes
Make use of C2 pointers : No

Read offset correction : 96
Overread into Lead-In and Lead-Out : No
Fill up missing offset samples with silence : Yes
Delete leading and trailing silent blocks : No
Null samples used in CRC calculations : Yes
Used interface : Native Win32 interface for Win NT & 2000

Used output format : User Defined Encoder
Selected bitrate : 32 kBit/s
Quality : High
Add ID3 tag : No
Command line compressor : C:\Program Files\Exact Audio Copy\Flac\flac.exe
Additional command line options : -6 -V %s


TOC of the extracted CD

Track | Start | Length | Start sector | End sector
---------------------------------------------------------
1 | 0:00.00 | 4:29.11 | 0 | 20185
2 | 4:29.11 | 4:45.48 | 20186 | 41608
3 | 9:14.59 | 3:17.43 | 41609 | 56426
4 | 12:32.27 | 3:00.13 | 56427 | 69939
5 | 15:32.40 | 4:13.72 | 69940 | 88986
6 | 19:46.37 | 3:12.38 | 88987 | 103424
7 | 22:59.00 | 3:47.48 | 103425 | 120497
8 | 26:46.48 | 3:57.58 | 120498 | 138330
9 | 30:44.31 | 3:42.00 | 138331 | 154980
10 | 34:26.31 | 5:22.29 | 154981 | 179159
11 | 39:48.60 | 6:00.39 | 179160 | 206198
12 | 45:49.24 | 7:22.25 | 206199 | 239373
13 | 53:11.49 | 4:05.22 | 239374 | 257770
14 | 57:16.71 | 4:12.45 | 257771 | 276715


Range status and errors

Selected range

Filename D:\Музыка\Lossless\Breaker - Dead Rider (1985) (Re-released In 2009)\Breaker - Dead Rider.wav

Peak level 100.0 %
Range quality 99.9 %
Copy CRC 4485956B
Copy OK

No errors occurred


AccurateRip summary

Track 1 accurately ripped (confidence 1) [1AA0FAD5]
Track 2 accurately ripped (confidence 1) [34DD1BC7]
Track 3 accurately ripped (confidence 1) [BBE63D2B]
Track 4 accurately ripped (confidence 1) [A89E9858]
Track 5 accurately ripped (confidence 1) [69568EAC]
Track 6 accurately ripped (confidence 1) [CD2B7CF5]
Track 7 accurately ripped (confidence 1) [C37AFC7D]
Track 8 accurately ripped (confidence 1) [2BBBE4EE]
Track 9 accurately ripped (confidence 1) [0EC86C0F]
Track 10 accurately ripped (confidence 1) [43DDDA27]
Track 11 accurately ripped (confidence 1) [76582088]
Track 12 accurately ripped (confidence 1) [6CD052AF]
Track 13 accurately ripped (confidence 1) [DF7E53F8]
Track 14 accurately ripped (confidence 1) [857E6697]

All tracks accurately ripped

End of status report

CUE
REM GENRE "Heavy Metal"
REM DATE 2009
REM DISCID CC0E690E
REM COMMENT "ExactAudioCopy v0.99pb5"
PERFORMER "Breaker"
TITLE "Dead Rider"
FILE "Breaker - Dead Rider.flac" WAVE
TRACK 01 AUDIO
TITLE "Run For Your Life"
PERFORMER "Breaker"
FLAGS DCP
INDEX 01 00:00:00
TRACK 02 AUDIO
TITLE "Born To Rock"
PERFORMER "Breaker"
FLAGS DCP
INDEX 00 04:27:11
INDEX 01 04:29:11
TRACK 03 AUDIO
TITLE "Dead Rider"
PERFORMER "Breaker"
FLAGS DCP
INDEX 00 09:12:59
INDEX 01 09:14:59
TRACK 04 AUDIO
TITLE "Shout Out Loud"
PERFORMER "Breaker"
FLAGS DCP
INDEX 00 12:30:27
INDEX 01 12:32:27
TRACK 05 AUDIO
TITLE "Cold Hearted Woman"
PERFORMER "Breaker"
FLAGS DCP
INDEX 00 15:30:40
INDEX 01 15:32:40
TRACK 06 AUDIO
TITLE "Rapist Killer"
PERFORMER "Breaker"
FLAGS DCP
INDEX 00 19:44:37
INDEX 01 19:46:37
TRACK 07 AUDIO
TITLE "Street Fighter"
PERFORMER "Breaker"
FLAGS DCP
INDEX 00 22:57:00
INDEX 01 22:59:00
TRACK 08 AUDIO
TITLE "Lucifer's Dream"
PERFORMER "Breaker"
FLAGS DCP
INDEX 00 26:44:48
INDEX 01 26:46:48
TRACK 09 AUDIO
TITLE "Out Of Control"
PERFORMER "Breaker"
FLAGS DCP
INDEX 00 30:42:31
INDEX 01 30:44:31
TRACK 10 AUDIO
TITLE "Together We Are Strong"
PERFORMER "Breaker"
FLAGS DCP
INDEX 00 34:24:31
INDEX 01 34:26:31
TRACK 11 AUDIO
TITLE "Evil Liar (Bonus)"
PERFORMER "Breaker"
FLAGS DCP
INDEX 00 39:46:60
INDEX 01 39:48:60
TRACK 12 AUDIO
TITLE "Down by Law (Bonus)"
PERFORMER "Breaker"
FLAGS DCP
INDEX 00 45:47:24
INDEX 01 45:49:24
TRACK 13 AUDIO
TITLE "Screaming for Guilty (Bonus)"
PERFORMER "Breaker"
FLAGS DCP
INDEX 00 53:09:49
INDEX 01 53:11:49
TRACK 14 AUDIO
TITLE "Law of War (Bonus)"
PERFORMER "Breaker"
FLAGS DCP
INDEX 00 57:14:71
INDEX 01 57:16:71

Spectrum
Image


Image

Narod.Ru


Top
 Profile E-mail  
 
 
PostPosted: 29 Jun 2011 
Прокъмитолист
User avatar
Joined: 12 Aug 2007
Posts: 6514
Lоcаtion: Санктъ-Петербуркъ
Age: 51
Name: Олекъ
:true: спасибо! :true:

_________________
прокъметол - это музыко, от которово есть прок (ы)


Top
 Profile  
 
 
PostPosted: 29 Jun 2011 
дядя Миша
User avatar
Joined: 17 Oct 2008
Posts: 3078
Lоcаtion: USSR
Age: 56
Name: Khy
Спасибо , Димон! В 2002 впервые услышал , тогда висел на метал ностальгии.Теперь люблю новые альбомы , старых банд , но это заберу.


Top
 Profile  
 
 
PostPosted: 30 Jun 2011 
Я набрал 1000 сообщений!
Joined: 12 Dec 2008
Posts: 1000
Lоcаtion: BULGARIA
Age: 40
Name: DIMITЪR
Спасибо ,классньй альбом!!!!! :true: :true:


Top
 Profile  
 
 
PostPosted: 30 Jun 2011 
Хиппей (support team)
User avatar
Joined: 30 Jul 2007
Posts: 108944
Lоcаtion: Киев (Kyiv, UA)
Age: 45
Name: Andrey
Димка, спасибо! :thanx:

mirror: MultiUp l Narod


Отпишитесь, плиз, как здесь звук, в сравнении с винил-рипом.

_________________


Top
 Profile E-mail  
 
 
PostPosted: 30 Jun 2011 
Работнечег
User avatar
Joined: 28 Aug 2007
Posts: 5606
Lоcаtion: г. Москва
Age: 29
Name: Дима
Андрюх, я не качал пока винил-рип, но, учитывая описание человека, который его выкладывал, я думаю, что сделал он его как минимум хорошо, и винил звучит не хуже, а скорее всего лучше) На сиди издании этом слышны иногда потрескивания, но в целом почищено нормально так, имхо) ну и у бонусов с демки спектр на 16 кГц обрезан и в звучании это конечно сказывается. Пока больше сказать не могу :pardon:


Top
 Profile E-mail  
 
 
PostPosted: 30 Jun 2011 
Хиппей (support team)
User avatar
Joined: 30 Jul 2007
Posts: 108944
Lоcаtion: Киев (Kyiv, UA)
Age: 45
Name: Andrey
Дим, спасибо еще раз :thanx:
А я вопрос прежде всего адресовал Димитару, который как и Толик, почему-то отдает предпочтение переизданиям с винила на CD, а не качественным винил-рипам :vic:

_________________


Top
 Profile E-mail  
 
 
PostPosted: 30 Jun 2011 
Я набрал 1000 сообщений!
Joined: 12 Dec 2008
Posts: 1000
Lоcаtion: BULGARIA
Age: 40
Name: DIMITЪR
Оригинальное СД тоже делаеться из винилом ,но разлика в том что в издание фирменние диски изполваеться професиональная техника и апаратура, а ето винил рипом каторьй тьй предлагаешь насколько я понимаю любителский рип и я предположил что нет получитсья хорошо.
Честно казано и винил-рипам звучить хорошо, огромнье спасибо за человек которьй сделал етой рип, изключая шумьй каторьй характерен за винилом.


Top
 Profile  
 
 
PostPosted: 30 Jun 2011 
Хиппей (support team)
User avatar
Joined: 30 Jul 2007
Posts: 108944
Lоcаtion: Киев (Kyiv, UA)
Age: 45
Name: Andrey
cryptors wrote:
Честно казано и винил-рипам звучить хорошо, огромнье спасибо за человек которьй сделал етой рип, изключая шумьй каторьй характерен за винилом.

Спасибо за отзыв.
А как тебе частоты и глубина звука (мягкость), в сравнении с винил-рипом и переизданием?

_________________


Top
 Profile E-mail  
 
 
PostPosted: 30 Jun 2011 
Почётный металлург
User avatar
Joined: 15 Sep 2007
Posts: 4357
Lоcаtion: Хабаровск
Age: 58
Name: чуть выше
:thanx:

_________________
Коль будешь людей ты ослами честить,
тебе человеком меж них не прослыть!
(Саади, персидский поэт, 13в.)


Top
 Profile  
 
 
PostPosted: 30 Jun 2011 
Я набрал 1000 сообщений!
Joined: 12 Dec 2008
Posts: 1000
Lоcаtion: BULGARIA
Age: 40
Name: DIMITЪR
Scatterbrain wrote:
А как тебе частоты и глубина звука (мягкость), в сравнении с винил-рипом и переизданием?


Высоких частотах более на винил-рипом :dance:


Top
 Profile  
 
 
PostPosted: 09 Jul 2011 
А может смените мне статус?..
User avatar
Joined: 24 Dec 2008
Posts: 622
Age: 44
Name: Дмитрий
Спасибо!


Top
 Profile  
 
 
PostPosted: 11 Jul 2011 
Рарник и трушник
User avatar
Joined: 25 Dec 2009
Posts: 8481
Lоcаtion: Москва
Age: 53
Name: Виталий
Я всегда обожал этот альбом (поэтому Акушера и не воспринял сразу), держал винил в коллекции.
Но этот релиз не особо впечатлил, есть некоторые огрехи в саунде и звук не очень красивый, среднечастотный, мой виниловый рип звучит получше!
А насчет профессиональной техники, используемой при записи СД - ну оочень спорный вопрос! Есть вертушки и иглы, которые практически вообще не выдают треска (какие-то специальные эллиптические), вот мой рип сделан с такой иглой, могу сказать с гордостью: ни треска ни рокота! :) А дальше в Аудишене почистить мелочевку - дело техники. Но здесь даже это сделано на уровне новичка-любителя.
Cult Metal Claasics конечно получше Картаго будет (те уж совсем ублюдки) но тож не айс :)
Самый крутой виниловый рип, который я слышал не переизданиях - это Tyrant 86 - Runnin hot. Вот там ни сучка ни задоринки, и звук чумовой, я уж поначалу поверил в чудо, что мастертэйп нашелся этого альбома, ан нет, высокопрофессиональный винил-рип. Вот это высший пилотаж, уважуха. Про этот релиз скажу - на четверку с минусом или тройку с плюсом. :)
Самое убогое переиздание, что я встречал в последнее время - это Area 86 - Twilight, та же Картаго засветилась, хотя ЦД штамповали где-то в Южной Америке. Там ваще взят мп3 рип, который есть у всех, там где фазы каналов перепутаны, не удосужились даже винил достать. :)


Top
 Profile  
 
 
PostPosted: 11 Jul 2011 
Хиппей (support team)
User avatar
Joined: 30 Jul 2007
Posts: 108944
Lоcаtion: Киев (Kyiv, UA)
Age: 45
Name: Andrey
Виталик, спасибо за отзыв :thanx:
По ходу, тебе будет интересно заглянуть в этот раздел :arrow: viewforum.php?f=68 :dance:

_________________


Top
 Profile E-mail  
 
 
PostPosted: 11 Jul 2011 
Я набрал 1000 сообщений!
Joined: 12 Dec 2008
Posts: 1000
Lоcаtion: BULGARIA
Age: 40
Name: DIMITЪR
Vitaly65 wrote:
мой виниловый рип звучит получше!


Давай послушаем :(


Top
 Profile  
 
Display posts from previous:  Sort by  
Post new topic Reply to topic  [ 15 posts ] 

All times are UTC + 3 hours


Who is online

Users browsing this forum: No registered users and 1 guest


You cannot post new topics in this forum
You cannot reply to topics in this forum
You cannot edit your posts in this forum
You cannot delete your posts in this forum
You cannot post attachments in this forum

Search for:
Яндекс.Метрика
Powered by phpBB © 2000, 2002, 2005, 2007 phpBB Group