\m/ 80's metal \m/

Информационно-аналитический форум "80 см пыли" (In Search We Trust) "У нас никто никуда не спешит"
Me For You - http://me-4u.com
It is currently 20 Oct 2018

All times are UTC + 3 hours

Spoiler
Chat - temporary registration for foreign users (please leave your application here)







Post new topic Reply to topic  [ 7 posts ] 
Author Message
 
PostPosted: 07 Jun 2011 
Персональный статус
User avatar
Joined: 02 Jul 2009
Posts: 293
Name: Александр
Ищу в lossless

Image

Big Bad Wolf - " Big Bad Wolf "
Category: Hard Rock
Year: 1998
Label: MTM (Germany)
Catalog Number: 199652

Personnel
Brett Bloomfield bass, vocals
Greg Chaquico lead, rhythm, and acoustic guitars, vocals
Rolf Hartley lead singer, acoustic guitar, keyboards
Kenny Stavropoulos drums, vocals

Tracks
1. Midnight Angel 4:31
2. Whereyawannago 4:15
3. I Can't Get Over You 4:51
4. Walk Don't Run 4:09
5. Crystal 4:02
6. Shot Down By Love 5:07
7. Cutting Edge 4:23
8. Three Chords of Steel 4:34
9. Light On For You 4:24
10. Blame It On Rock 4:47
11. Don't Say Goodbye 3:33

Total Running Time: 48:36

http://www.heavyharmonies.com/cgi-bin/g ... g+Bad+Wolf


Top
 Profile E-mail  
 
 
PostPosted: 07 Jun 2011 
10cm
User avatar
Joined: 22 Mar 2011
Posts: 90
Lоcаtion: Брянск
Age: 27
Name: Олег
Присоединяюсь к просьбе альбом просто вещь! чудесный мелодик хард!.если есть у коготь в качестве поделитесь пожалуйста! :thanx:

_________________
Death To All But Metal!!!!


Top
 Profile E-mail  
 
 
PostPosted: 07 Jun 2011 
Хиппей (support team)
User avatar
Joined: 30 Jul 2007
Posts: 107072
Lоcаtion: Киев (Kyiv, UA)
Age: 45
Name: Andrey
150 rur
Quote:
CD-Maximum
:scratch:
http://folkcd.ru/collection/Heavy-metal ... g-Bad-Wolf
204 rur
http://blackcd.ru/php/content.php?id=750

_________________


Top
 Profile E-mail  
 
 
PostPosted: 14 May 2012 
Персональный статус
User avatar
Joined: 29 Sep 2009
Posts: 271
Lоcаtion: Надым
Age: 40
Name: Виталий
http://rutracker.org/forum/viewtopic.php?t=3755815


Top
 Profile E-mail  
 
 
PostPosted: 19 May 2012 
Хиппей (support team)
User avatar
Joined: 30 Jul 2007
Posts: 107072
Lоcаtion: Киев (Kyiv, UA)
Age: 45
Name: Andrey
:thanx:

Big Bad Wolf - 1998 - Big Bad Wolf [flac]

Image

Genre: Hard Rock 90's
Location: Germany
Format: flac + cue + log + scans
Size: 406 Mb


Line-up:

Brett Bloomfield - bass, vocals
Greg Chaquico - lead, rhythm & acoustic guitars, vocals
Rolf Hartley - lead singer, acoustic guitar, keyboards
Kenny Stavropoulos - drums, vocals

    1. Midnight Angel - 04:31
    2. Whereyawannago - 04:15
    3. I Can't Get Over You - 04:51
    4. Walk Don't Run - 04:09
    5. Crystal - 04:02
    6. Shot Down By Love - 05:07
    7. Cutting Edge - 04:23
    8. Three Chords of Steel - 04:34
    9. Light On For You - 04:24
    10. Blame It On Rock - 04:47
    11. Don't Say Goodbye - 03:33

    TPT: 48:42

mirror: MultiUp l Narod

log
Exact Audio Copy V0.99 prebeta 5 from 4. May 2009

Отчёт EAC об извлечении, выполненном 1. октября 2011, 16:18

Big Bad Wolf / Big Bad Wolf

Дисковод: SlimtypeDVD A DS8A5SH Adapter: 0 ID: 1

Режим чтения : Достоверность
Использование точного потока : Да
Отключение кэша аудио : Да
Использование указателей C2 : Нет

Коррекция смещения при чтении : 6
Способность читать области Lead-in и Lead-out : Нет
Заполнение пропущенных сэмплов тишиной : Да
Удаление блоков с тишиной в начале и конце : Нет
При вычислениях CRC использовались нулевые сэмплы : Да
Интерфейс : Встроенный Win32-интерфейс для Win NT/2000

Выходной формат : Пользовательский кодировщик
Выбранный битрейт : 320 kBit/s
Качество : Высокий
Добавление ID3-тэга : Нет
Утилита сжатия : C:\Program Files (x86)\Exact Audio Copy\Flac\flac.exe
Дополнительные параметры : -8 -V %s


TOC извлечённого CD

Трек | Старт | Длительность | Начальный сектор | Конечный сектор
---------------------------------------------------------------------
1 | 0:00.00 | 4:31.29 | 0 | 20353
2 | 4:31.29 | 4:15.62 | 20354 | 39540
3 | 8:47.16 | 4:51.63 | 39541 | 61428
4 | 13:39.04 | 4:09.24 | 61429 | 80127
5 | 17:48.28 | 4:02.44 | 80128 | 98321
6 | 21:50.72 | 5:07.54 | 98322 | 121400
7 | 26:58.51 | 4:23.71 | 121401 | 141196
8 | 31:22.47 | 4:34.49 | 141197 | 161795
9 | 35:57.21 | 4:24.69 | 161796 | 181664
10 | 40:22.15 | 4:47.20 | 181665 | 203209
11 | 45:09.35 | 3:33.03 | 203210 | 219187
12 | 51:14.38 | 0:33.29 | 230588 | 233091


Характеристики диапазона извлечения и сообщения об ошибках

Выбранный диапазон

Имя файла D:\My Music\Big Bad Wolf - 1998 Big Bad Wolf\Big Bad Wolf - Big Bad Wolf.wav

Пиковый уровень 100.0 %
Качество диапазона 99.9 %
CRC теста E4176E90
CRC копии E4176E90
Копирование... OK

Ошибок не произошло


AccurateRip: сводка

Трек 1 нет в базе данных
Трек 2 нет в базе данных
Трек 3 нет в базе данных
Трек 4 нет в базе данных
Трек 5 нет в базе данных
Трек 6 нет в базе данных
Трек 7 нет в базе данных
Трек 8 нет в базе данных
Трек 9 нет в базе данных
Трек 10 нет в базе данных
Трек 11 нет в базе данных

Ни одного трека нет в базе AccurateRip

Конец отчёта

cue
REM GENRE "Hard Rock"
REM DATE 1998
REM DISCID 8E0C230C
REM COMMENT "ExactAudioCopy v0.99pb5"
PERFORMER "Big Bad Wolf"
TITLE "Big Bad Wolf"
FILE "Big Bad Wolf - Big Bad Wolf.flac" WAVE
TRACK 01 AUDIO
TITLE "Midnight Angel"
PERFORMER "Big Bad Wolf"
FLAGS DCP
INDEX 01 00:00:00
TRACK 02 AUDIO
TITLE "Whereyawannago"
PERFORMER "Big Bad Wolf"
FLAGS DCP
INDEX 01 04:31:29
TRACK 03 AUDIO
TITLE "I Can't Get Over You"
PERFORMER "Big Bad Wolf"
FLAGS DCP
INDEX 01 08:47:16
TRACK 04 AUDIO
TITLE "Walk Don't Run"
PERFORMER "Big Bad Wolf"
FLAGS DCP
INDEX 01 13:39:04
TRACK 05 AUDIO
TITLE "Crystal"
PERFORMER "Big Bad Wolf"
FLAGS DCP
INDEX 01 17:48:28
TRACK 06 AUDIO
TITLE "Shot Down By Love"
PERFORMER "Big Bad Wolf"
FLAGS DCP
INDEX 01 21:50:72
TRACK 07 AUDIO
TITLE "Cutting Edge"
PERFORMER "Big Bad Wolf"
FLAGS DCP
INDEX 01 26:58:51
TRACK 08 AUDIO
TITLE "Three Chords Of Steel"
PERFORMER "Big Bad Wolf"
FLAGS DCP
INDEX 01 31:22:47
TRACK 09 AUDIO
TITLE "Light On For You"
PERFORMER "Big Bad Wolf"
FLAGS DCP
INDEX 01 35:57:21
TRACK 10 AUDIO
TITLE "Blame It On Rock"
PERFORMER "Big Bad Wolf"
FLAGS DCP
INDEX 01 40:22:15
TRACK 11 AUDIO
TITLE "Don't Say Goodbye "
PERFORMER "Big Bad Wolf"
FLAGS DCP
INDEX 01 45:09:35

spectrum
Image

_________________


Top
 Profile E-mail  
 
 
PostPosted: 20 May 2012 
Хиппей (support team)
User avatar
Joined: 30 Jul 2007
Posts: 107072
Lоcаtion: Киев (Kyiv, UA)
Age: 45
Name: Andrey
Нормальный молодёжный Hard Rock :dance:
Даже не назову его мелодиком, потому что альбом в духе американского хард-рока 90-х, по типу Bon Jovi и прочих. Но вокал очень близко подобрался к Джо Эллиоту из Def Leppard.
Ничем особенным релиз не выделяется, но слушается весьма приятно и романтично.

7/10

Две с половиной баллады хотел отделить в тему о рок-медляках, но... слишком уж стандартные они :pardon:
фор ю
ту ю
ремембер
форевер
и прочие донт сей гудбай

_________________


Top
 Profile E-mail  
 
 
PostPosted: 20 May 2012 
Хиппей (support team)
User avatar
Joined: 30 Jul 2007
Posts: 107072
Lоcаtion: Киев (Kyiv, UA)
Age: 45
Name: Andrey
О... только обратил внимание, что барабанщик явно наш - из бывшего СССР :crazy:

_________________


Top
 Profile E-mail  
 
Display posts from previous:  Sort by  
Post new topic Reply to topic  [ 7 posts ] 

All times are UTC + 3 hours


Who is online

Users browsing this forum: No registered users and 3 guests


You cannot post new topics in this forum
You cannot reply to topics in this forum
You cannot edit your posts in this forum
You cannot delete your posts in this forum
You cannot post attachments in this forum

Search for:
Яндекс.Метрика
cron
Powered by phpBB © 2000, 2002, 2005, 2007 phpBB Group