\m/ 80's metal \m/

Информационно-аналитический форум "80 см пыли" (In Search We Trust) "У нас никто никуда не спешит"
Me For You - http://me-4u.com
It is currently 23 Oct 2018

All times are UTC + 3 hours

Spoiler
Chat - temporary registration for foreign users (please leave your application here)







Post new topic Reply to topic  [ 20 posts ] 
Author Message
 
PostPosted: 09 May 2011 
А может смените мне статус?..
User avatar
Joined: 04 Jun 2009
Posts: 681
Lоcаtion: Москва
Age: 28
Name: Дмитрий
Britton (Canada) - Until The Day We Die 1994

Image

Tracklist:
1. Until the Day We Die
2. The Face of Fear
3. Don't Hold Your Breath
4. Hold On
5. Put Your Money Down
6. That Little Voice
7. So Far Away
8. What's On Your Mind
9. Never Be Alone
10. It's a Crime
11. Superman

Bitrate: WAV+CUE

:losik:
http://ifolder.ru/23406040

Exclusive. For 80s.takemetal.com only. By whiteLion90 :meloman:

P.S. сканы с текстом песен присутствуют.

log
EAC extraction logfile from 31. December 2010, 11:17 for CD
Unknown Artist / Unknown Title

Used drive : _NEC DVD_RW ND-3550A Adapter: 0 ID: 0 LUN: 0
Read mode : Secure with NO C2, accurate stream, disable cache
Read offset correction : 48
Overread into Lead-In and Lead-Out : No

Used output format : Internal WAV Routines
44.100 Hz; 16 Bit; Stereo

Other options :
Fill up missing offset samples with silence : Yes
Delete leading and trailing silent blocks : No
Native Win32 interface for Win NT & 2000


Range status and errors
Selected range
Filename D:\My CDs\Britton (Canada) - Until The Day We Die (1994) Hard Rock.wav

Peak level 79.9 %
Range quality 100.0 %
CRC 6A0D216F
Copy OK

No errors occured

End of status report

cue
PERFORMER "Unknown Artist"
TITLE "Unknown Title"
FILE "Britton (Canada) - Until The Day We Die (1994) Hard Rock.wav" WAVE
TRACK 01 AUDIO
TITLE "Until The Day We Die"
PERFORMER "Britton (Canada)"
INDEX 01 00:00:00
TRACK 02 AUDIO
TITLE "The Face Of Fear"
PERFORMER "Britton (Canada)"
INDEX 00 04:29:67
INDEX 01 04:33:52
TRACK 03 AUDIO
TITLE "Don't Hold Your Breath"
PERFORMER "Britton (Canada)"
INDEX 00 09:33:57
INDEX 01 09:37:30
TRACK 04 AUDIO
TITLE "Hold On"
PERFORMER "Britton (Canada)"
INDEX 00 12:57:40
INDEX 01 13:01:05
TRACK 05 AUDIO
TITLE "Put Your Money Down"
PERFORMER "Britton (Canada)"
INDEX 00 17:17:27
INDEX 01 17:21:00
TRACK 06 AUDIO
TITLE "That Little Voice"
PERFORMER "Britton (Canada)"
INDEX 00 21:49:67
INDEX 01 21:53:40
TRACK 07 AUDIO
TITLE "So Far Away"
PERFORMER "Britton (Canada)"
INDEX 00 25:37:05
INDEX 01 25:40:50
TRACK 08 AUDIO
TITLE "What's On Your Mind"
PERFORMER "Britton (Canada)"
INDEX 00 30:13:15
INDEX 01 30:17:12
TRACK 09 AUDIO
TITLE "Neve Be Alone"
PERFORMER "Britton (Canada)"
INDEX 00 34:02:30
INDEX 01 34:06:00
TRACK 10 AUDIO
TITLE "It's A Crime"
PERFORMER "Britton (Canada)"
INDEX 00 37:57:05
INDEX 01 38:00:47
TRACK 11 AUDIO
TITLE "Superman"
PERFORMER "Britton (Canada)"
INDEX 00 41:24:60
INDEX 01 41:28:32

spectrum
Image


Top
 Profile E-mail  
 
 
PostPosted: 09 May 2011 
хард н хэвщик (support team)
User avatar
Joined: 02 Jun 2008
Posts: 16880
Lоcаtion: Н.Новгород
Age: 31
Name: Артем
гранд мерси, Димон :true:


Top
 Profile  
 
 
PostPosted: 17 May 2011 
Хиппей (support team)
User avatar
Joined: 30 Jul 2007
Posts: 107144
Lоcаtion: Киев (Kyiv, UA)
Age: 45
Name: Andrey
Димка, спасибо :true:

_________________


Top
 Profile E-mail  
 
 
PostPosted: 17 May 2011 
спирт 100%
User avatar
Joined: 22 Sep 2008
Posts: 4305
Age: 47
Name: Саня
:thanx:
Димон,Спасибо!!! :true:


Top
 Profile  
 
 
PostPosted: 17 May 2011 
Персональный статус
Joined: 02 Apr 2010
Posts: 223
Name: Андрей
Спасибо! :thanx:


Top
 Profile  
 
 
PostPosted: 19 May 2011 
Я набрал 1000 сообщений!
Joined: 24 Oct 2009
Posts: 2069
Lоcаtion: Оренбург
Age: 55
Name: Юра
И я благодарен! :thanx:

_________________
:dash: I am happy!


Top
 Profile E-mail  
 
 
PostPosted: 22 May 2011 
Пионэръ
User avatar
Joined: 08 Nov 2010
Posts: 43
Lоcаtion: Россия
Name: Юрий
Спасибо! Хорошая команда!


Top
 Profile E-mail  
 
 
PostPosted: 22 May 2011 
Old Time Rock`n`Roll
User avatar
Joined: 23 Jun 2008
Posts: 3356
Lоcаtion: г.Ульяновск
Age: 40
Name: Константин
Спасибо,попробую урвать!


Top
 Profile  
 
 
PostPosted: 05 Feb 2012 
Генеральный thrasher
User avatar
Joined: 03 Oct 2008
Posts: 3470
Lоcаtion: Ханты-Мансийский АО
Age: 43
Name: Сергей
Перезалейте плиз!!! :dash:


Top
 Profile  
 
 
PostPosted: 05 Feb 2012 
Хиппей (support team)
User avatar
Joined: 30 Jul 2007
Posts: 107144
Lоcаtion: Киев (Kyiv, UA)
Age: 45
Name: Andrey
Хм, я то точно качал. Но на винте щас не вижу. Явно архив был назвал по гласным буквам. Поищу еще... :umnik:

_________________


Top
 Profile E-mail  
 
 
PostPosted: 05 Feb 2012 
Хиппей (support team)
User avatar
Joined: 30 Jul 2007
Posts: 107144
Lоcаtion: Киев (Kyiv, UA)
Age: 45
Name: Andrey
О, нашёл уже у себя в списке :shok:
Странно, как это я не отзеркалил сразу :vic:

_________________


Top
 Profile E-mail  
 
 
PostPosted: 05 Feb 2012 
Хиппей (support team)
User avatar
Joined: 30 Jul 2007
Posts: 107144
Lоcаtion: Киев (Kyiv, UA)
Age: 45
Name: Andrey
mirror: iFolder l Narod l M-Cloud

Пережал вавы во флак.

_________________


Top
 Profile E-mail  
 
 
PostPosted: 05 Feb 2012 
Генеральный thrasher
User avatar
Joined: 03 Oct 2008
Posts: 3470
Lоcаtion: Ханты-Мансийский АО
Age: 43
Name: Сергей
Андрюх,а как с него качать??????????


Top
 Profile  
 
 
PostPosted: 05 Feb 2012 
Хиппей (support team)
User avatar
Joined: 30 Jul 2007
Posts: 107144
Lоcаtion: Киев (Kyiv, UA)
Age: 45
Name: Andrey
Хых, жмешь мышкой на имя файла =)

Загрузка: :arrow: сюда

_________________


Top
 Profile E-mail  
 
 
PostPosted: 06 Feb 2012 
Генеральный thrasher
User avatar
Joined: 03 Oct 2008
Posts: 3470
Lоcаtion: Ханты-Мансийский АО
Age: 43
Name: Сергей
:thanx:


Top
 Profile  
 
 
PostPosted: 23 Jul 2012 
Труъ
User avatar
Joined: 05 Oct 2008
Posts: 194
Lоcаtion: Saint Petersburg
Age: 45
Name: Jesse
Большое мерси! Заберу пожалуй! :thanx:


Top
 Profile  
 
 
PostPosted: 30 Nov 2016 
5cm
User avatar
Joined: 28 Mar 2013
Posts: 66
Age: 27
Name: Erik
Good Day Friends !!

Please share a new link !!

Thanks a lot !!


Top
 Profile E-mail  
 
 
PostPosted: 01 Dec 2016 
Хиппей (support team)
User avatar
Joined: 30 Jul 2007
Posts: 107144
Lоcаtion: Киев (Kyiv, UA)
Age: 45
Name: Andrey
Good Day Friends !!

Please share a new link !!

Thanks a lot !!

Драсти :kro:
Too lazy to click on all the links? :lloo:
:arrow: viewtopic.php?p=148901#p148901

_________________


Top
 Profile E-mail  
 
 
PostPosted: 04 Dec 2016 
5cm
User avatar
Joined: 28 Mar 2013
Posts: 66
Age: 27
Name: Erik
I'm sorry, nothing can go wrong !!

:dash: !!


Top
 Profile E-mail  
 
 
PostPosted: 11 Dec 2016 
Хиппей (support team)
User avatar
Joined: 30 Jul 2007
Posts: 107144
Lоcаtion: Киев (Kyiv, UA)
Age: 45
Name: Andrey
А альбом то хорош :meloman:
Melodic Hard Rock с небольшими вкраплениями AOR'a, - cтадионные гимны, просто красивые песни и одновременно сильные, мощные, без соплей и с хорошим вокалом.
По манере голос похож на помесь Боно и... Винса Нэйла, например.

6+/10

_________________


Top
 Profile E-mail  
 
Display posts from previous:  Sort by  
Post new topic Reply to topic  [ 20 posts ] 

All times are UTC + 3 hours


Who is online

Users browsing this forum: No registered users and 3 guests


You cannot post new topics in this forum
You cannot reply to topics in this forum
You cannot edit your posts in this forum
You cannot delete your posts in this forum
You cannot post attachments in this forum

Search for:
Яндекс.Метрика
cron
Powered by phpBB © 2000, 2002, 2005, 2007 phpBB Group