\m/ 80's metal \m/

Информационно-аналитический форум "80 см пыли" (In Search We Trust) "У нас никто никуда не спешит"
Me For You - http://me-4u.com
It is currently 23 Oct 2018

All times are UTC + 3 hours

Spoiler
Chat - temporary registration for foreign users (please leave your application here)







Post new topic Reply to topic  [ 3 posts ] 
Author Message
 
PostPosted: 28 Apr 2011 
Прокъмитолист
User avatar
Joined: 12 Aug 2007
Posts: 6490
Lоcаtion: Санктъ-Петербуркъ
Age: 51
Name: Олекъ
Blind Petition [1990] 1990 Live
Energy Records (SPV 84-9641-2)

Image

Genre: heavy metal
Country: Austria
Contents: flac/cue/log/covers
Size: 522 MB

Tracklist:
01. Intro / Walhalla
02. Welcome To Win
03. Brainstorming
04. Snake
05. Soldiers Of Love
06. Heartless
07. Shoot'n Kill
08. Indian Spirit
09. Crucifer
10. Love In December
11. Perversum Maximum
12. In A Dream
13. Boys
14. Cat Games
15. Hero Hero
16. Get Ready To Lose
17. Highway Devils
18. Addicted To Sadness

Playtime: 72:33

Lineup:
Gary Wheeler - vocals
Hannes Fusel Bartsch - guitars
Curt Ninaus - guitars
Jo Haas - bass
Manfred Reckendorfer - drums
******
Helmut Bibl - additional guitar on 14

EAC log
Code:
Exact Audio Copy V1.0 beta 1 from 15. November 2010

EAC extraction logfile from 11. March 2011, 12:50

Blind Petition / 1990 Live

Used drive  : Optiarc DVD RW AD-7240S   Adapter: 2  ID: 0

Read mode               : Secure
Utilize accurate stream : Yes
Defeat audio cache      : Yes
Make use of C2 pointers : No

Read offset correction                      : 48
Overread into Lead-In and Lead-Out          : No
Fill up missing offset samples with silence : Yes
Delete leading and trailing silent blocks   : No
Null samples used in CRC calculations       : Yes
Used interface                              : Native Win32 interface for Win NT & 2000

Used output format : Internal WAV Routines
Sample format      : 44.100 Hz; 16 Bit; Stereo


TOC of the extracted CD

     Track |   Start  |  Length  | Start sector | End sector
    ---------------------------------------------------------
        1  |  0:00.32 |  6:33.05 |        32    |    29511   
        2  |  6:33.37 |  2:52.33 |     29512    |    42444   
        3  |  9:25.70 |  2:29.20 |     42445    |    53639   
        4  | 11:55.15 |  2:36.12 |     53640    |    65351   
        5  | 14:31.27 |  3:42.30 |     65352    |    82031   
        6  | 18:13.57 |  3:03.65 |     82032    |    95821   
        7  | 21:17.47 |  3:23.03 |     95822    |   111049   
        8  | 24:40.50 |  4:12.05 |    111050    |   129954   
        9  | 28:52.55 |  4:14.45 |    129955    |   149049   
       10  | 33:07.25 |  3:12.47 |    149050    |   163496   
       11  | 36:19.72 |  5:42.05 |    163497    |   189151   
       12  | 42:02.02 |  6:03.28 |    189152    |   216404   
       13  | 48:05.30 |  2:05.07 |    216405    |   225786   
       14  | 50:10.37 |  4:48.35 |    225787    |   247421   
       15  | 54:58.72 |  7:19.45 |    247422    |   280391   
       16  | 62:18.42 |  4:12.08 |    280392    |   299299   
       17  | 66:30.50 |  3:07.27 |    299300    |   313351   
       18  | 69:38.02 |  2:55.03 |    313352    |   326479   


Range status and errors

Selected range

     Filename D:\spiralarch\Blind Petition - 1990 Live.wav

     Peak level 96.7 %
     Extraction speed 0.1 X
     Range quality 100.0 %
     Copy CRC 6B046488
     Copy OK

No errors occurred


AccurateRip summary

Track  1  cannot be verified as accurate (confidence 1)  [FF37AF7C], AccurateRip returned [48171D0D]
Track  2  cannot be verified as accurate (confidence 1)  [2F944007], AccurateRip returned [D28A01C1]
Track  3  cannot be verified as accurate (confidence 1)  [E48B89CC], AccurateRip returned [EA33016E]
Track  4  cannot be verified as accurate (confidence 1)  [3DBBC945], AccurateRip returned [B9F04EA7]
Track  5  cannot be verified as accurate (confidence 1)  [FE0A1EEA], AccurateRip returned [E35051BB]
Track  6  cannot be verified as accurate (confidence 1)  [57DB4ABD], AccurateRip returned [03D3F091]
Track  7  cannot be verified as accurate (confidence 1)  [238B84F8], AccurateRip returned [5EF6B7A6]
Track  8  cannot be verified as accurate (confidence 1)  [2A9E5EB6], AccurateRip returned [A008B6C1]
Track  9  cannot be verified as accurate (confidence 1)  [414420C0], AccurateRip returned [D7701E3F]
Track 10  cannot be verified as accurate (confidence 1)  [C6347FEC], AccurateRip returned [CE824D11]
Track 11  cannot be verified as accurate (confidence 1)  [973CEAF4], AccurateRip returned [60BB98AC]
Track 12  cannot be verified as accurate (confidence 1)  [0699F94B], AccurateRip returned [1A7D981A]
Track 13  cannot be verified as accurate (confidence 1)  [3734405D], AccurateRip returned [02BA041E]
Track 14  cannot be verified as accurate (confidence 1)  [3EC55AB3], AccurateRip returned [AA956D78]
Track 15  cannot be verified as accurate (confidence 1)  [BBA913BA], AccurateRip returned [B167EF37]
Track 16  cannot be verified as accurate (confidence 1)  [F19C2A22], AccurateRip returned [4C807BC0]
Track 17  cannot be verified as accurate (confidence 1)  [EABCD8C6], AccurateRip returned [FB613BDD]
Track 18  cannot be verified as accurate (confidence 1)  [24565EDE], AccurateRip returned [E2535324]

No tracks could be verified as accurate
You may have a different pressing from the one(s) in the database

End of status report

==== Log checksum FBA9D473DF3D8BB514CC0F0A00081D83A9D60F86EAFB7552D2B090C397A895D3 ====

Code:
[Verification date: 27.04.2011 22:01:00]
[Disc ID: 002e1785-026bac44-12110112]
Pregap length 00:00:32.
Track   [ CRC    ] Status
01   [ff37af7c] (00/01) No matches
02   [2f944007] (00/01) No matches
03   [e48b89cc] (00/01) No matches
04   [3dbbc945] (00/01) No matches
05   [fe0a1eea] (00/01) No matches
06   [57db4abd] (00/01) No matches
07   [238b84f8] (00/01) No matches
08   [2a9e5eb6] (00/01) No matches
09   [414420c0] (00/01) No matches
10   [c6347fec] (00/01) No matches
11   [973ceaf4] (00/01) No matches
12   [0699f94b] (00/01) No matches
13   [3734405d] (00/01) No matches
14   [3ec55ab3] (00/01) No matches
15   [bba913ba] (00/01) No matches
16   [f19c2a22] (00/01) No matches
17   [eabcd8c6] (00/01) No matches
18   [24565ede] (00/01) No matches
Offsetted by -664:
01   [48171d0d] (01/01) Accurately ripped
02   [d28a01c1] (01/01) Accurately ripped
03   [ea33016e] (01/01) Accurately ripped
04   [b9f04ea7] (01/01) Accurately ripped
05   [e35051bb] (01/01) Accurately ripped
06   [03d3f091] (01/01) Accurately ripped
07   [5ef6b7a6] (01/01) Accurately ripped
08   [a008b6c1] (01/01) Accurately ripped
09   [d7701e3f] (01/01) Accurately ripped
10   [ce824d11] (01/01) Accurately ripped
11   [60bb98ac] (01/01) Accurately ripped
12   [1a7d981a] (01/01) Accurately ripped
13   [02ba041e] (01/01) Accurately ripped
14   [aa956d78] (01/01) Accurately ripped
15   [b167ef37] (01/01) Accurately ripped
16   [4c807bc0] (01/01) Accurately ripped
17   [fb613bdd] (01/01) Accurately ripped
18   [e2535324] (01/01) Accurately ripped

Track   [ CRC32  ]   [W/O NULL]   [  LOG   ]
--   [6B046488]   [7423F7EA]     CRC32   
01   [11B45BC7]   [C86F3C75]   
02   [342B3D87]   [F64E3824]   
03   [A3FC3FDF]   [DA98F0D5]   
04   [713EAA82]   [4675B2CD]   
05   [C32489F5]   [D174D845]   
06   [5FC6FC35]   [32518505]   
07   [BC1F458A]   [A187E7AE]   
08   [90B15665]   [A94D573B]   
09   [982105E6]   [73F299D2]   
10   [7633705E]   [B916EE29]   
11   [C22C04BC]   [489D7221]   
12   [045FB65D]   [D08177B1]   
13   [99EADD85]   [7A57E349]   
14   [E578B4FA]   [41B2DD91]   
15   [67951CBD]   [0F890446]   
16   [6FCDCDB7]   [A58B91FF]   
17   [3F505BD0]   [EE036CF8]   
18   [F017BAF7]   [9013FE07]

Спасибо за диск Димке church:thanx: мопед диск не мой, я только раместил объяву :true:

_________________
прокъметол - это музыко, от которово есть прок (ы)


Top
 Profile  
 
 
PostPosted: 28 Apr 2011 
хард н хэвщик (support team)
User avatar
Joined: 02 Jun 2008
Posts: 16880
Lоcаtion: Н.Новгород
Age: 31
Name: Артем
Огромное спасибо, Дим, за немецкую сталь :true:


Top
 Profile  
 
 
PostPosted: 28 Apr 2011 
Хиппей (support team)
User avatar
Joined: 30 Jul 2007
Posts: 107127
Lоcаtion: Киев (Kyiv, UA)
Age: 45
Name: Andrey
:thanx: :true:

mirror: Narod

_________________


Top
 Profile E-mail  
 
Display posts from previous:  Sort by  
Post new topic Reply to topic  [ 3 posts ] 

All times are UTC + 3 hours


Who is online

Users browsing this forum: No registered users and 2 guests


You cannot post new topics in this forum
You cannot reply to topics in this forum
You cannot edit your posts in this forum
You cannot delete your posts in this forum
You cannot post attachments in this forum

Search for:
Яндекс.Метрика
Powered by phpBB © 2000, 2002, 2005, 2007 phpBB Group