\m/ 80's metal \m/

Информационно-аналитический форум "80 см пыли" (In Search We Trust) "У нас никто никуда не спешит"
Me For You - http://me-4u.com
It is currently 18 Oct 2018

All times are UTC + 3 hours

Spoiler
Chat - temporary registration for foreign users (please leave your application here)







Post new topic Reply to topic  [ 3 posts ] 
Author Message
 
PostPosted: 15 Mar 2011 
Пионэръ
User avatar
Joined: 15 Mar 2011
Posts: 17
Lоcаtion: Spain
Name: Tuco Pacífico
Image
Image
Image

Image

Band: Black Sabbath
Album: We Sold our Soul for Rock 'n' Roll
Year: 1975, 1998 Japan Remaster
Country: England
Genre: Heavy Metal
Format: DCDRip(FLAC + CUE + LOG + Covers)
Length: 92 min
Size: 638 mb
Release: by Tuco Pacífico[EsparaelMetal]

Image

Tracklist:

01 Black Sabbath
02 The Wizard
03 Warning
04 Paranoid
05 War Pigs
06 Iron Man
07 Tomorrow's Dream
08 Fairies Wear Boots
09 Changes
10 Sweet Leaf
11 Children Of The Grave
12 Sabbath Bloody Sabbath
13 Am I Going Insane (Radio)
14 Laguana Sunrise
15 Snowblind
16 N.I.B

Скачать:
MULTILINK
NarodDisk

LOG CD 1
Code:
Exact Audio Copy V0.99 prebeta 5 from 4. May 2009

EAC extraction logfile from 14. March 2011, 10:30

Black Sabbath / We Sold Our Soul For Rock 'N' Roll (CD1)

Used drive  : TSSTcorpCDDVDW SE-S084F   Adapter: 1  ID: 0

Read mode               : Secure
Utilize accurate stream : Yes
Defeat audio cache      : Yes
Make use of C2 pointers : No

Read offset correction                      : 6
Overread into Lead-In and Lead-Out          : No
Fill up missing offset samples with silence : Yes
Delete leading and trailing silent blocks   : No
Null samples used in CRC calculations       : Yes
Used interface                    : Native Win32 interface for Win NT & 2000

Used output format : Internal WAV Routines
Sample format      : 44.100 Hz; 16 Bit; Stereo

TOC of the extracted CD

         Track |   Start  |  Length  | Start sector | End sector     
        ---------------------------------------------------------
            1  |  0:00.00 |  6:21.00 |         0    |    28574       
            2  |  6:21.00 |  4:24.50 |     28575    |    48424       
            3  | 10:45.50 | 10:35.37 |     48425    |    96086       
            4  | 21:21.12 |  2:52.15 |     96087    |   109001       
            5  | 24:13.27 |  7:58.58 |    109002    |   144909       
            6  | 32:12.10 |  5:58.37 |    144910    |   171796       
            7  | 38:10.47 |  4:44.00 |    171797    |   193096       

Range status and errors

Selected range

         Filename D:\Black Sabbath\CD 1\Black Sabbath - We Sold Our Soul For Rock 'N' Roll (CD1).wav

         Peak level 100.0 %
         Range quality 100.0 %
         Copy CRC 8714B76D
         Copy OK

No errors occurred

         
AccurateRip summary
         
Track  1  not present in database
Track  2  not present in database
Track  3  not present in database
Track  4  not present in database
Track  5  not present in database
Track  6  not present in database
Track  7  not present in database
         
None of the tracks are present in the AccurateRip database

End of status report


LOG CD 2
Code:
Exact Audio Copy V0.99 prebeta 5 from 4. May 2009

EAC extraction logfile from 14. March 2011, 11:03

Black Sabbath / We Sold Our Soul For Rock 'n' Roll (CD2)

Used drive  : TSSTcorpCDDVDW SE-S084F   Adapter: 1  ID: 0

Read mode               : Secure
Utilize accurate stream : Yes
Defeat audio cache      : Yes
Make use of C2 pointers : No

Read offset correction                      : 6
Overread into Lead-In and Lead-Out          : No
Fill up missing offset samples with silence : Yes
Delete leading and trailing silent blocks   : No
Null samples used in CRC calculations       : Yes
Used interface                    : Native Win32 interface for Win NT & 2000

Used output format : Internal WAV Routines
Sample format      : 44.100 Hz; 16 Bit; Stereo

TOC of the extracted CD

         Track |   Start  |  Length  | Start sector | End sector     
        ---------------------------------------------------------
            1  |  0:00.00 |  3:13.05 |         0    |    14479       
            2  |  3:13.05 |  6:16.05 |     14480    |    42684       
            3  |  9:29.10 |  4:46.35 |     42685    |    64169       
            4  | 14:15.45 |  5:05.67 |     64170    |    87111       
            5  | 19:21.37 |  5:19.45 |     87112    |   111081       
            6  | 24:41.07 |  5:47.60 |    111082    |   137166       
            7  | 30:28.67 |  4:27.15 |    137167    |   157206       
            8  | 34:56.07 |  2:54.00 |    157207    |   170256       
            9  | 37:50.07 |  5:31.35 |    170257    |   195116       
           10  | 43:21.42 |  6:05.33 |    195117    |   222524       

Range status and errors

Selected range

         Filename D:\Black Sabbath\CD 2\Black Sabbath - We Sold Our Soul For Rock 'n' Roll (CD2).wav

         Peak level 100.0 %
         Range quality 99.9 %
         Copy CRC 74EF9500
         Copy OK

No errors occurred

         
AccurateRip summary
         
Track  1  not present in database
Track  2  not present in database
Track  3  not present in database
Track  4  not present in database
Track  5  not present in database
Track  6  not present in database
Track  7  not present in database
Track  8  not present in database
Track  9  not present in database
Track 10  not present in database
         
None of the tracks are present in the AccurateRip database

End of status report


Image


Top
 Profile E-mail  
 
 
PostPosted: 16 Mar 2011 
Хиппей (support team)
User avatar
Joined: 30 Jul 2007
Posts: 106969
Lоcаtion: Киев (Kyiv, UA)
Age: 45
Name: Andrey
:thanx:

Bienvenido Tuco :true:

mirror: MultiUp l Narod

_________________


Top
 Profile E-mail  
 
 
PostPosted: 16 Mar 2011 
Работнечег
User avatar
Joined: 28 Aug 2007
Posts: 5465
Lоcаtion: г. Москва
Age: 29
Name: Дима
Thanks! :true:


Top
 Profile E-mail  
 
Display posts from previous:  Sort by  
Post new topic Reply to topic  [ 3 posts ] 

All times are UTC + 3 hours


Who is online

Users browsing this forum: No registered users and 2 guests


You cannot post new topics in this forum
You cannot reply to topics in this forum
You cannot edit your posts in this forum
You cannot delete your posts in this forum
You cannot post attachments in this forum

Search for:
Яндекс.Метрика
Powered by phpBB © 2000, 2002, 2005, 2007 phpBB Group