\m/ 80's metal \m/

Информационно-аналитический форум "80 см пыли" (In Search We Trust) "У нас никто никуда не спешит"
Me For You - http://me-4u.com
It is currently 11 Dec 2018

All times are UTC + 3 hours

Spoiler
Chat - temporary registration for foreign users (please leave your application here)







Post new topic Reply to topic  [ 4 posts ] 
Author Message
 
PostPosted: 14 Feb 2011 
Работнечег
User avatar
Joined: 28 Aug 2007
Posts: 5599
Lоcаtion: г. Москва
Age: 29
Name: Дима
Image

Band: Byfist
Album: Preserving The Past
Year: 2008
Label: Rock It Up Records
Genre: Heavy Metal
Coutry: USA
Format: Flac + Log + Cue + Covers
Size: 349 Mb

Current line-up
Rob Steele - Vocals (Reverend)
James Martinez - Guitar (2010-)
Notch Vara - Guitar (Reverend)
Michael Falletta - Bass
Dave Galbert - Drums


Former/past member(s)
Vocals:
Danny Fonseca (2002-2003)
Vikk Real (2000-2002) (One of Sixx, Fiarro)
Bill Lopez (1987)
Ronnie Sticks (2002-2002)


Guitar:
John Rodriguez ( -2001)
Davey Lee (Reverend) - R.I.P. 10/1/2010, heart attack


Bass:
Rey Gone (2000-2002)
Roy Cruz (1987)
Perry Aarn (2002-2003)
Jay Wegener (Reverend, Heir Apparent)


Drums:
Michael J. Sandoval
Jesse Vara (Reverend)
Mike Molina


Tracklist:
1. Mary Celeste 05:01
2. Eternal Damnation 03:36
3. Left To Die 04:41
4. Meltdown 04:54
5. Should Have Known 03:31
6. Eyes Of Geneva 04:03
7. Midnight Mass 03:37
8. Inspiration 05:04
9. Judgement Day 02:23
10. Love Will Find A Way 03:56
11. Hour Glass Of Time 04:34
12. Guaranteed Death (Demo: Bonus Track) 05:18
Total playing time 50:38

Track 1-4: Adrenalin EP
Track 5,6,7,9: You Should Have Known EP
Track 10-11: Hour Glass Of Time 7"
Track 12: Unreleased Song from 2006


LOG
Exact Audio Copy V0.99 prebeta 5 from 4. May 2009

Отчёт EAC об извлечении, выполненном 23. марта 2010, 15:18

Byfist / Preserving The Past

Дисковод: PIONEER DVD-RW DVR-116D Adapter: 0 ID: 0

Режим чтения : Достоверность
Использование точного потока : Да
Отключение кэша аудио : Да
Использование указателей C2 : Нет

Коррекция смещения при чтении : 96
Способность читать области Lead-in и Lead-out : Нет
Заполнение пропущенных сэмплов тишиной : Да
Удаление блоков с тишиной в начале и конце : Нет
При вычислениях CRC использовались нулевые сэмплы : Да
Интерфейс : Встроенный Win32-интерфейс для Win NT/2000

Выходной формат : Пользовательский кодировщик
Выбранный битрейт : 32 kBit/s
Качество : Высокий
Добавление ID3-тэга : Нет
Утилита сжатия : C:\Program Files\Exact Audio Copy\Flac\flac.exe
Дополнительные параметры : -6 -V %s


TOC извлечённого CD

Трек | Старт | Длительность | Начальный сектор | Конечный сектор
---------------------------------------------------------------------
1 | 0:00.00 | 5:01.70 | 0 | 22644
2 | 5:01.70 | 3:36.09 | 22645 | 38853
3 | 8:38.04 | 4:41.18 | 38854 | 59946
4 | 13:19.22 | 4:54.62 | 59947 | 82058
5 | 18:14.09 | 3:31.12 | 82059 | 97895
6 | 21:45.21 | 4:03.13 | 97896 | 116133
7 | 25:48.34 | 3:37.47 | 116134 | 132455
8 | 29:26.06 | 5:04.64 | 132456 | 155319
9 | 34:30.70 | 2:23.05 | 155320 | 166049
10 | 36:54.00 | 3:56.17 | 166050 | 183766
11 | 40:50.17 | 4:34.13 | 183767 | 204329
12 | 45:24.30 | 5:18.51 | 204330 | 228230


Характеристики диапазона извлечения и сообщения об ошибках

Выбранный диапазон

Имя файла D:\Музыка\Lossless\Byfist - Preserving The Past (Compilation) (2008)\Byfist - Preserving The Past.wav

Пиковый уровень 68.8 %
Качество диапазона 100.0 %
CRC копии BCFF48FD
Копирование... OK

Ошибок не произошло

Конец отчёта

CUE
REM GENRE "Power Metal"
REM DATE 2008
REM DISCID 880BE30C
REM COMMENT "ExactAudioCopy v0.99pb5"
PERFORMER "Byfist"
TITLE "Preserving The Past"
FILE "Byfist - Preserving The Past.flac" WAVE
TRACK 01 AUDIO
TITLE "Mary Celeste"
PERFORMER "Byfist"
INDEX 01 00:00:00
TRACK 02 AUDIO
TITLE "Etenal Damnation"
PERFORMER "Byfist"
INDEX 00 04:59:70
INDEX 01 05:01:70
TRACK 03 AUDIO
TITLE "Left To Die"
PERFORMER "Byfist"
INDEX 00 08:36:04
INDEX 01 08:38:04
TRACK 04 AUDIO
TITLE "Meltdown"
PERFORMER "Byfist"
INDEX 00 13:17:22
INDEX 01 13:19:22
TRACK 05 AUDIO
TITLE "Should Have Known"
PERFORMER "Byfist"
INDEX 00 18:12:09
INDEX 01 18:14:09
TRACK 06 AUDIO
TITLE "Eyes Of Geneva"
PERFORMER "Byfist"
INDEX 00 21:43:21
INDEX 01 21:45:21
TRACK 07 AUDIO
TITLE "Midnight Mass"
PERFORMER "Byfist"
INDEX 00 25:46:34
INDEX 01 25:48:34
TRACK 08 AUDIO
TITLE "Inspiration"
PERFORMER "Byfist"
INDEX 00 29:24:06
INDEX 01 29:26:06
TRACK 09 AUDIO
TITLE "Judgement Day"
PERFORMER "Byfist"
INDEX 00 34:28:70
INDEX 01 34:30:70
TRACK 10 AUDIO
TITLE "Love Will Find A Way"
PERFORMER "Byfist"
INDEX 00 36:52:00
INDEX 01 36:54:00
TRACK 11 AUDIO
TITLE "Hour Glass Of Time"
PERFORMER "Byfist"
INDEX 00 40:48:17
INDEX 01 40:50:17
TRACK 12 AUDIO
TITLE "Guaranteed Death (Bonus)"
PERFORMER "Byfist"
INDEX 00 45:22:30
INDEX 01 45:24:30


Narod.Ru


Top
 Profile E-mail  
 
 
PostPosted: 14 Feb 2011 
Прокъмитолист
User avatar
Joined: 12 Aug 2007
Posts: 6513
Lоcаtion: Санктъ-Петербуркъ
Age: 51
Name: Олекъ
спасибо, Дим! :true:

_________________
прокъметол - это музыко, от которово есть прок (ы)


Top
 Profile  
 
 
PostPosted: 04 Nov 2011 
Хиппей (support team)
User avatar
Joined: 30 Jul 2007
Posts: 108817
Lоcаtion: Киев (Kyiv, UA)
Age: 45
Name: Andrey
:thanx:

_________________


Top
 Profile E-mail  
 
 
PostPosted: 14 Aug 2014 
спирт 100%
User avatar
Joined: 22 Sep 2008
Posts: 4323
Age: 47
Name: Саня
О, Дим Спасибо!!! :thanx:


Top
 Profile  
 
Display posts from previous:  Sort by  
Post new topic Reply to topic  [ 4 posts ] 

All times are UTC + 3 hours


Who is online

Users browsing this forum: No registered users and 2 guests


You cannot post new topics in this forum
You cannot reply to topics in this forum
You cannot edit your posts in this forum
You cannot delete your posts in this forum
You cannot post attachments in this forum

Search for:
Яндекс.Метрика
Powered by phpBB © 2000, 2002, 2005, 2007 phpBB Group