\m/ 80's metal \m/

Информационно-аналитический форум "80 см пыли" (In Search We Trust) "У нас никто никуда не спешит"
Me For You - http://me-4u.com
It is currently 12 Dec 2018

All times are UTC + 3 hours

Spoiler
Chat - temporary registration for foreign users (please leave your application here)







Post new topic Reply to topic  [ 3 posts ] 
Author Message
 
PostPosted: 11 Feb 2011 
Хиппей (support team)
User avatar
Joined: 30 Jul 2007
Posts: 108837
Lоcаtion: Киев (Kyiv, UA)
Age: 45
Name: Andrey
Black Hawk - 2008 - The Invasion [flac]

Attachment:
front.jpg
front.jpg [ 1.21 MiB | Viewed 117 times ]


Genre: Heavy Metal
Location: Germany
Format: flac+log+cue+scans
Size: 368 Mb


Line-up:

Udo Bethke - Vocals
Thorsten Bettge - Guitars
Wolfgang Tewes - Guitars
Michael Wiekenberg - Bass
Niko Schaper - Drums

    1. The Landing - 00:42
    2. Fire in the Night - 03:27
    3. Burning Fever - 05:20
    4. Detroit Rock City - 03:50
    5. Rock and Roll Hell - 04:14
    6. Flight from Outerspace - 03:38
    7. First Attack Pt.2 - 04:26
    8. The Invasion - 04:54
    9. Twilight Zone (New version) - 04:31
    10. Hellfire - 03:43
    11. C.B.F.H - 04:17
    12. Eye of the Hurricane (New version) - 04:13

    ТРТ: 47:15

Ripped by Vadyanoi (все спасибки Вадиму) :thanx:

MultiUp l Narod

log
Exact Audio Copy V0.99 prebeta 1 from 25. May 2007

Отчёт EAC об извлечении, выполненном 13. декабря 2008, 0:53

Black Hawk / The Invasion

Дисковод: TOSHIBA DVD-ROM SD-M1912 Adapter: 0 ID: 1

Режим чтения : Достоверность
Использование точного потока : Да
Отключение кэша аудио : Да
Использование указателей C2 : Нет

Коррекция смещения при чтении : 12
Способность читать области Lead-in и Lead-out : Нет
Заполнение пропущенных сэмплов тишиной : Да
Удаление блоков с тишиной в начале и конце : Нет
Интерфейс : Встроенный Win32-интерфейс для Win NT/2000

Выходной формат : Внутренние WAV-операции
Формат сэмплов : 44.100 Гц; 16 бит; стерео
Смещение при сжатии : 2257


TOC извлечённого CD

Трек | Старт | Длительность | Начальный сектор | Конечный сектор
---------------------------------------------------------------------
1 | 0:00.00 | 0:42.26 | 0 | 3175
2 | 0:42.26 | 3:27.06 | 3176 | 18706
3 | 4:09.32 | 5:20.12 | 18707 | 42718
4 | 9:29.44 | 3:50.39 | 42719 | 60007
5 | 13:20.08 | 4:14.49 | 60008 | 79106
6 | 17:34.57 | 3:38.51 | 79107 | 95507
7 | 21:13.33 | 4:26.62 | 95508 | 115519
8 | 25:40.20 | 4:54.30 | 115520 | 137599
9 | 30:34.50 | 4:31.16 | 137600 | 157940
10 | 35:05.66 | 3:43.68 | 157941 | 174733
11 | 38:49.59 | 4:17.05 | 174734 | 194013
12 | 43:06.64 | 4:14.01 | 194014 | 213064


Характеристики диапазона извлечения и сообщения об ошибках

Выбранный диапазон

Имя файла D:\Black Hawk - The Invasion.wav

Пиковый уровень 98.8 %
Качество диапазона 100.0 %
CRC копии 6CA6E212
Копирование... OK


AccurateRip: сводка

Трек 1 нет в базе данных
Трек 2 нет в базе данных
Трек 3 нет в базе данных
Трек 4 нет в базе данных
Трек 5 нет в базе данных
Трек 6 нет в базе данных
Трек 7 нет в базе данных
Трек 8 нет в базе данных
Трек 9 нет в базе данных
Трек 10 нет в базе данных
Трек 11 нет в базе данных
Трек 12 нет в базе данных

Ошибок не произошло

Конец отчёта


cue
REM GENRE "Heavy Metal"
REM DATE 2008
REM DISCID 8C0B180C
REM COMMENT "ExactAudioCopy v0.99pb1"
PERFORMER "Black Hawk"
TITLE "The Invasion"
FILE "Black Hawk - The Invasion.wav" WAVE
TRACK 01 AUDIO
TITLE "The Landing"
PERFORMER "Black Hawk"
INDEX 01 00:00:00
TRACK 02 AUDIO
TITLE "Fire In The Night"
PERFORMER "Black Hawk"
INDEX 01 00:42:26
TRACK 03 AUDIO
TITLE "Burning Fever"
PERFORMER "Black Hawk"
INDEX 01 04:09:32
TRACK 04 AUDIO
TITLE "Detroit Rock City"
PERFORMER "Black Hawk"
INDEX 00 09:28:72
INDEX 01 09:29:44
TRACK 05 AUDIO
TITLE "Rock And Roll Hell"
PERFORMER "Black Hawk"
INDEX 01 13:20:08
TRACK 06 AUDIO
TITLE "Flight From Outerspace (instr.)"
PERFORMER "Black Hawk"
INDEX 00 17:34:34
INDEX 01 17:34:57
TRACK 07 AUDIO
TITLE "First Attack Pt. 2"
PERFORMER "Black Hawk"
INDEX 01 21:13:33
TRACK 08 AUDIO
TITLE "The Invasion"
PERFORMER "Black Hawk"
INDEX 00 25:40:03
INDEX 01 25:40:20
TRACK 09 AUDIO
TITLE "Twilight Zone"
PERFORMER "Black Hawk"
INDEX 00 30:34:46
INDEX 01 30:34:50
TRACK 10 AUDIO
TITLE "Hellfire"
PERFORMER "Black Hawk"
INDEX 01 35:05:66
TRACK 11 AUDIO
TITLE "C.B.F.H."
PERFORMER "Black Hawk"
INDEX 01 38:49:59
TRACK 12 AUDIO
TITLE "Eye Of The Hurricane"
PERFORMER "Black Hawk"
INDEX 00 43:06:25
INDEX 01 43:06:64


spectre
Attachment:
spectre.png
spectre.png [ 1.43 MiB | Viewed 107 times ]

_________________


Top
 Profile E-mail  
 
 
PostPosted: 12 Feb 2011 
Труъ
User avatar
Joined: 14 Jul 2009
Posts: 158
Lоcаtion: Hell Is Here
Age: 48
Name: Adriano
Thank You Very Much !! :thanx:


Top
 Profile E-mail  
 
 
PostPosted: 01 Oct 2011 
Хиппей (support team)
User avatar
Joined: 30 Jul 2007
Posts: 108837
Lоcаtion: Киев (Kyiv, UA)
Age: 45
Name: Andrey
Немного странноватым альбом показался мне... :scratch:

Вроде и звук из 80-х, и музыка. А какой-то целостности и завершенности не хватает :oops:
Слушал, не смотря на дату издания диска, потому был уверен, что это альбом из 80-х, добитый бонусами.
А так и вышло - не знаю, когда именно записывали этот релиз, но группа образовалась в начале 80-х и... И играет мелодичный германский спид-мэтал на стыке традишенэл хэви.
Неплохо получается, но... мне не очень понравилось. Как-то мало скоростных вещей, да и звук легковат. А так песни варьируются от мелодично-попсовый в духе Dokken, перемежаясь с боевиками в стиле раннего Accept.
А вообще, группа больше тяготеет к американской школе хэви. Это можно легко понять, посомтрев на трэклист. Вона на втором месте затесался кавер на Kiss - "Detroit Rock City" :pardon: Однако, ребята в него добавили весьма смачные соляки, тем самым оживив дряхленький хит.

7-/10

_________________


Top
 Profile E-mail  
 
Display posts from previous:  Sort by  
Post new topic Reply to topic  [ 3 posts ] 

All times are UTC + 3 hours


Who is online

Users browsing this forum: No registered users and 4 guests


You cannot post new topics in this forum
You cannot reply to topics in this forum
You cannot edit your posts in this forum
You cannot delete your posts in this forum
You cannot post attachments in this forum

Search for:
Яндекс.Метрика
Powered by phpBB © 2000, 2002, 2005, 2007 phpBB Group