\m/ 80's metal \m/

Информационно-аналитический форум "80 см пыли" (In Search We Trust) "У нас никто никуда не спешит"
Me For You - http://me-4u.com
It is currently 17 Oct 2018

All times are UTC + 3 hours

Spoiler
Chat - temporary registration for foreign users (please leave your application here)







Post new topic Reply to topic  [ 8 posts ] 
Author Message
 
PostPosted: 14 Jan 2011 
Работнечег
User avatar
Joined: 28 Aug 2007
Posts: 5464
Lоcаtion: г. Москва
Age: 29
Name: Дима
Image

Band: Brat
Album: Sword & Stone
Label: Retrospect Records
Genre: Heavy Metal
Country: USA
Format: Flac + Log + Cue/Covers
Size: 292 Mb/5 Mb

Line-Up:
Rae Rosario - Vocals
John Urban - Bass (Breaker (USA), Atomik Cocktail, Urban Vault)
Bruce Batten - Guitar (Atomik Cocktail, Urban Vault, Thunder (USA), Cutthroat )
Chris Ahjar - Guitar
Russ Hammock - Drums (Atomik Cocktail, Thunder (USA), Cutthroat )


Tracklist:
1. Circles Of Fire 03:24
2. Sword And Stone 02:21
3. Born Under the Northern Star 03:13
4. Hall Of The Mountain King 03:35
5. Black Widow 03:21
6. The Forbidden One 04:42
7. The Killing Floor 04:30
8. The Nightstalker 02:38
9. Throw Away The Key 05:35
10. Hell On Wheels 02:27
11. Bad Blood 02:53
12. Steal Your Heart Away (Bonus Track) 04:06
13. Recurring Nightmares (Bonus Track) 03:14

LOG
Exact Audio Copy V0.99 prebeta 5 from 4. May 2009

EAC extraction logfile from 4. January 2011, 14:28

Brat / Sword And Stone

Used drive : PIONEER DVD-RW DVR-116D Adapter: 0 ID: 0

Read mode : Secure
Utilize accurate stream : Yes
Defeat audio cache : Yes
Make use of C2 pointers : No

Read offset correction : 96
Overread into Lead-In and Lead-Out : No
Fill up missing offset samples with silence : Yes
Delete leading and trailing silent blocks : No
Null samples used in CRC calculations : Yes
Used interface : Native Win32 interface for Win NT & 2000

Used output format : User Defined Encoder
Selected bitrate : 32 kBit/s
Quality : High
Add ID3 tag : No
Command line compressor : C:\Program Files\Exact Audio Copy\Flac\flac.exe
Additional command line options : -6 -V %s


TOC of the extracted CD

Track | Start | Length | Start sector | End sector
---------------------------------------------------------
1 | 0:00.00 | 3:23.46 | 0 | 15270
2 | 3:23.46 | 2:21.08 | 15271 | 25853
3 | 5:44.54 | 3:12.59 | 25854 | 40312
4 | 8:57.38 | 3:34.67 | 40313 | 56429
5 | 12:32.30 | 3:21.06 | 56430 | 71510
6 | 15:53.36 | 4:42.16 | 71511 | 92676
7 | 20:35.52 | 4:30.14 | 92677 | 112940
8 | 25:05.66 | 2:37.67 | 112941 | 124782
9 | 27:43.58 | 5:35.04 | 124783 | 149911
10 | 33:18.62 | 2:26.56 | 149912 | 160917
11 | 35:45.43 | 2:52.56 | 160918 | 173873
12 | 38:38.24 | 4:06.26 | 173874 | 192349
13 | 42:44.50 | 3:14.31 | 192350 | 206930


Range status and errors

Selected range

Filename D:\Музыка\Lossless\Brat - Sword And Stone (2003)\Brat - Sword And Stone.wav

Peak level 98.5 %
Range quality 100.0 %
Copy CRC 89779EFE
Copy OK

No errors occurred


AccurateRip summary

Track 1 accurately ripped (confidence 1) [FF532A2D]
Track 2 accurately ripped (confidence 1) [05D6A399]
Track 3 accurately ripped (confidence 1) [EDD8CE14]
Track 4 accurately ripped (confidence 1) [A9E2A769]
Track 5 accurately ripped (confidence 1) [F1339936]
Track 6 accurately ripped (confidence 1) [EC7E7683]
Track 7 accurately ripped (confidence 1) [14A255E9]
Track 8 accurately ripped (confidence 1) [7D775E9F]
Track 9 accurately ripped (confidence 1) [37B841D3]
Track 10 accurately ripped (confidence 1) [A725129C]
Track 11 accurately ripped (confidence 1) [7B19DAC7]
Track 12 accurately ripped (confidence 1) [0FFD4181]
Track 13 accurately ripped (confidence 1) [DEDDBBA1]

All tracks accurately ripped

End of status report

CUE
REM GENRE "Heavy Metal"
REM DATE 2003
REM DISCID A00AC70D
REM COMMENT "ExactAudioCopy v0.99pb5"
PERFORMER "Brat"
TITLE "Sword And Stone"
FILE "Brat - Sword And Stone.flac" WAVE
TRACK 01 AUDIO
TITLE "01 - Circles Of Fire"
PERFORMER "Brat"
INDEX 01 00:00:00
TRACK 02 AUDIO
TITLE "02 - Sword And Stone"
PERFORMER "Brat"
INDEX 00 03:21:46
INDEX 01 03:23:46
TRACK 03 AUDIO
TITLE "03 - Born Under The Northern Star"
PERFORMER "Brat"
INDEX 00 05:42:54
INDEX 01 05:44:54
TRACK 04 AUDIO
TITLE "04 - Hall Of The Mountain King"
PERFORMER "Brat"
INDEX 00 08:55:38
INDEX 01 08:57:38
TRACK 05 AUDIO
TITLE "05 - Black Widow"
PERFORMER "Brat"
INDEX 00 12:30:30
INDEX 01 12:32:30
TRACK 06 AUDIO
TITLE "06 - The Forbidden One"
PERFORMER "Brat"
INDEX 00 15:51:36
INDEX 01 15:53:36
TRACK 07 AUDIO
TITLE "07 - The Killing Floor"
PERFORMER "Brat"
INDEX 00 20:33:52
INDEX 01 20:35:52
TRACK 08 AUDIO
TITLE "08 - The Nightstalker"
PERFORMER "Brat"
INDEX 00 25:03:66
INDEX 01 25:05:66
TRACK 09 AUDIO
TITLE "09 - Throw Away The Key"
PERFORMER "Brat"
INDEX 00 27:41:58
INDEX 01 27:43:58
TRACK 10 AUDIO
TITLE "10 - Hell On Wheels"
PERFORMER "Brat"
INDEX 00 33:16:62
INDEX 01 33:18:62
TRACK 11 AUDIO
TITLE "11 - Bad Blood "
PERFORMER "Brat"
INDEX 00 35:43:43
INDEX 01 35:45:43
TRACK 12 AUDIO
TITLE "12 - Steal Your Heart Away (Bonus Track)"
PERFORMER "Brat"
INDEX 00 38:36:24
INDEX 01 38:38:24
TRACK 13 AUDIO
TITLE "13 - Recurring Nightmares (Bonus Track)"
PERFORMER "Brat"
INDEX 00 42:42:50
INDEX 01 42:44:50

Spectrum
Image
Image


Narod.Ru
Covers

По сути это сборник демок, видимо поэтому спектр обрезан где-то после 13 кГц. В целом неплохо сделано, звучит почище, чем моя версия в мп3. Наверное малова-то у нас релизов от этого лейбла, чтобы пока что-то конкретное говорить...
P.S. В сканах забыл одну страничку сделать...если кому-то очень надо, то пишите, как-нибудь на досуге отсканю...ненавижу буклеты-гармошки сканировать :fingal:

Темка на форуме: Brat (USA)


Top
 Profile E-mail  
 
 
PostPosted: 14 Jan 2011 
Thrasher
User avatar
Joined: 07 Oct 2007
Posts: 2756
Lоcаtion: Russia, Moscow
Age: 34
Name: Drunk & Evil
:thanx:

заценим

_________________
ВОДКА, БАБЫ И БЛЮЗ / 40° till death... :bodun:
One time we saw some hookers, but when we got closer, we realised it was Mötley Crüe. ©


Top
 Profile  
 
 
PostPosted: 25 Jan 2011 
Прокъмитолист
User avatar
Joined: 12 Aug 2007
Posts: 6487
Lоcаtion: Санктъ-Петербуркъ
Age: 50
Name: Олекъ
Дим, спасибо! :thanx: ну и страничку бы тоже хотелось для полноты картины :oops: а если б ты еще и сам диск сканировал - ваще было бы зашибись :oops:

з.ы. даёшь Брат два! :crazy: :true:

_________________
прокъметол - это музыко, от которово есть прок (ы)


Top
 Profile  
 
 
PostPosted: 25 Jan 2011 
Хиппей (support team)
User avatar
Joined: 30 Jul 2007
Posts: 106935
Lоcаtion: Киев (Kyiv, UA)
Age: 45
Name: Andrey
:thanx: :true:
Кабы не Олег, до весны подбирался бы к этой теме (читаю сверху вниз непрочитанные темы).
Димка, спасибо большое :thanx:

_________________


Top
 Profile E-mail  
 
 
PostPosted: 26 Jan 2011 
Работнечег
User avatar
Joined: 28 Aug 2007
Posts: 5464
Lоcаtion: г. Москва
Age: 29
Name: Дима
spiralarch wrote:
ну и страничку бы тоже хотелось для полноты картины :oops: а если б ты еще и сам диск сканировал - ваще было бы зашибись :oops:

Ok, сделаю, только на следующей неделе скорее всего.


Top
 Profile E-mail  
 
 
PostPosted: 14 Feb 2011 
Работнечег
User avatar
Joined: 28 Aug 2007
Posts: 5464
Lоcаtion: г. Москва
Age: 29
Name: Дима
Затянулась "следующая неделя" :oops:
Image

Image


Top
 Profile E-mail  
 
 
PostPosted: 14 Feb 2011 
Прокъмитолист
User avatar
Joined: 12 Aug 2007
Posts: 6487
Lоcаtion: Санктъ-Петербуркъ
Age: 50
Name: Олекъ
за брата - спасибо! :true:

_________________
прокъметол - это музыко, от которово есть прок (ы)


Top
 Profile  
 
 
PostPosted: 04 Nov 2011 
Хиппей (support team)
User avatar
Joined: 30 Jul 2007
Posts: 106935
Lоcаtion: Киев (Kyiv, UA)
Age: 45
Name: Andrey
Ой, только добрался вновь сюда :shok: Спасибо за картинки... :thanx: собирал по всему монитору :lamer:

_________________


Top
 Profile E-mail  
 
Display posts from previous:  Sort by  
Post new topic Reply to topic  [ 8 posts ] 

All times are UTC + 3 hours


Who is online

Users browsing this forum: No registered users and 3 guests


You cannot post new topics in this forum
You cannot reply to topics in this forum
You cannot edit your posts in this forum
You cannot delete your posts in this forum
You cannot post attachments in this forum

Search for:
Яндекс.Метрика
Powered by phpBB © 2000, 2002, 2005, 2007 phpBB Group