\m/ 80's metal \m/

Информационно-аналитический форум "80 см пыли" (In Search We Trust) "У нас никто никуда не спешит"
Me For You - http://me-4u.com
It is currently 18 Oct 2018

All times are UTC + 3 hours

Spoiler
Chat - temporary registration for foreign users (please leave your application here)







Post new topic Reply to topic  [ 7 posts ] 
Author Message
 
PostPosted: 02 Nov 2010 
ыыыы
User avatar
Joined: 17 May 2009
Posts: 952
Lоcаtion: Пушкино, МО
Age: 40
Name: Дмитрий
Image


Жанр: Hard Rock
Происхождение исполнителя: США
Год издания: 1989
Год издания данного носителя: 1989
Страна-производитель носителя: Япония
Аудио кодек: FLAC
Тип рипа: image+.cue
Битрейт аудио: lossless
Продолжительность: 49:51
Рип: Собственный
Лейбл: ATLANTIC/MMG
Каталоговый номер: 22P2-2707
Матрица: 22P2-2707 1A1 TO (TOSHIBA)

Треклист:
1. High Wire 03:45
2. Dreams in the Dark 03:29
3. Jade's Song 01:23
4. Winter's Call 05:35
5. Dancing on the Edge 03:27
6. Streets Cry Freedom 06:10
7. Hard Driver 04:50
8. Rumblin' Train 05:46
9. Devil's Stomp 04:54
10. Seasons 06:20
11. Ball & Chain 04:12

"Куй"
REM GENRE "Hard Rock"
REM DATE 1989
REM DISCID 780BAE0B
REM COMMENT "ExactAudioCopy v0.99pb5"
PERFORMER "Badlands"
TITLE "Badlands [22P2-2707]"
FILE "Badlands - Badlands [22P2-2707].flac" WAVE
TRACK 01 AUDIO
TITLE "High Wire"
PERFORMER "Badlands"
INDEX 01 00:00:00
TRACK 02 AUDIO
TITLE "Dreams In The Dark"
PERFORMER "Badlands"
INDEX 01 03:44:45
TRACK 03 AUDIO
TITLE "Jade's Song"
PERFORMER "Badlands"
INDEX 00 07:12:40
INDEX 01 07:14:02
TRACK 04 AUDIO
TITLE "Winter's Call"
PERFORMER "Badlands"
INDEX 00 08:36:47
INDEX 01 08:36:72
TRACK 05 AUDIO
TITLE "Dancing On The Edge"
PERFORMER "Badlands"
INDEX 00 14:11:40
INDEX 01 14:12:05
TRACK 06 AUDIO
TITLE "Streets Cry Freedom"
PERFORMER "Badlands"
INDEX 01 17:39:20
TRACK 07 AUDIO
TITLE "Hard Driver"
PERFORMER "Badlands"
INDEX 00 23:48:12
INDEX 01 23:48:65
TRACK 08 AUDIO
TITLE "Rumblin' Train"
PERFORMER "Badlands"
INDEX 01 28:38:45
TRACK 09 AUDIO
TITLE "Devil's Stomp"
PERFORMER "Badlands"
INDEX 00 34:23:05
INDEX 01 34:24:30
TRACK 10 AUDIO
TITLE "Seasons"
PERFORMER "Badlands"
INDEX 01 39:18:45
TRACK 11 AUDIO
TITLE "Ball & Chain"
PERFORMER "Badlands"
INDEX 01 45:38:22


"Лог"
Exact Audio Copy V0.99 prebeta 5 from 4. May 2009

Отчёт EAC об извлечении, выполненном 2. ноября 2010, 12:16

Badlands / Badlands [22P2-2707]

Дисковод: Optiarc DVD RW AD-7200A Adapter: 1 ID: 0

Режим чтения : Достоверность
Использование точного потока : Да
Отключение кэша аудио : Да
Использование указателей C2 : Нет

Коррекция смещения при чтении : 48
Способность читать области Lead-in и Lead-out : Нет
Заполнение пропущенных сэмплов тишиной : Да
Удаление блоков с тишиной в начале и конце : Нет
При вычислениях CRC использовались нулевые сэмплы : Да
Интерфейс : Встроенный Win32-интерфейс для Win NT/2000

Выходной формат : Пользовательский кодировщик
Выбранный битрейт : 128 kBit/s
Качество : Высокий
Добавление ID3-тэга : Нет
Утилита сжатия : C:\Program Files\Exact Audio Copy\Flac\flac.exe
Дополнительные параметры : -8 -V -T "artist=%a" -T "title=%t" -T "album=%g" -T "date=%y" -T "tracknumber=%n" -T "genre=%m" -T "comment=EAC


TOC извлечённого CD

Трек | Старт | Длительность | Начальный сектор | Конечный сектор
---------------------------------------------------------------------
1 | 0:00.00 | 3:44.45 | 0 | 16844
2 | 3:44.45 | 3:29.32 | 16845 | 32551
3 | 7:14.02 | 1:22.70 | 32552 | 38771
4 | 8:36.72 | 5:35.08 | 38772 | 63904
5 | 14:12.05 | 3:27.15 | 63905 | 79444
6 | 17:39.20 | 6:09.45 | 79445 | 107164
7 | 23:48.65 | 4:49.55 | 107165 | 128894
8 | 28:38.45 | 5:45.60 | 128895 | 154829
9 | 34:24.30 | 4:54.15 | 154830 | 176894
10 | 39:18.45 | 6:19.52 | 176895 | 205371
11 | 45:38.22 | 4:12.23 | 205372 | 224294


Характеристики диапазона извлечения и сообщения об ошибках

Выбранный диапазон

Имя файла Y:\Музыка\Badlands\1989 Badlands\Badlands - Badlands [22P2-2707].wav

Пиковый уровень 97.7 %
Качество диапазона 99.9 %
CRC теста 186A8ACF
CRC копии 186A8ACF
Копирование... OK

Ошибок не произошло


AccurateRip: сводка

Трек 1 точное извлечение (доверие 3) [25B15421]
Трек 2 точное извлечение (доверие 3) [4DB5F987]
Трек 3 точное извлечение (доверие 3) [C817B182]
Трек 4 точное извлечение (доверие 3) [F3355E19]
Трек 5 точное извлечение (доверие 3) [EDC19FFF]
Трек 6 точное извлечение (доверие 3) [7817408F]
Трек 7 точное извлечение (доверие 3) [DB877C06]
Трек 8 точное извлечение (доверие 3) [69986EBE]
Трек 9 точное извлечение (доверие 3) [7D89CD19]
Трек 10 точное извлечение (доверие 3) [CCBD5A40]
Трек 11 точное извлечение (доверие 3) [7E9823D1]

Все треки извлечены точно

Конец отчёта


Состав:
Ray Gillen: Lead Vocals, Blues Harp
Jake E. Lee: Guitar, Keyboards
Greg Chaisson: Bass
Eric Singer: Drums

22P2-2707

_________________
Витасу до Даймонда как Алсу до Руссоса | При переразмещении - спрашивать разрешение!!


Top
 Profile  
 
 
PostPosted: 02 Nov 2010 
Анатолий
User avatar
Joined: 18 Oct 2008
Posts: 3133
Lоcаtion: Армавир
Age: 41
Name: Анатолий
iezuit

Спасибо большое! :thanx: Отличный вокалист, отличный гитарист, что ещё для счастья нужно. Хороший альбом. :meloman:


Top
 Profile E-mail  
 
 
PostPosted: 02 Nov 2010 
Персональный статус
Joined: 14 May 2010
Posts: 236
Age: 37
Name: Денис
Privateer wrote:
Отличный вокалист, отличный гитарист, что ещё для счастья нужно.

Как что, конечно же отличный ударник Eric Singer! :true:


Top
 Profile  
 
 
PostPosted: 02 Nov 2010 
Хиппей (support team)
User avatar
Joined: 30 Jul 2007
Posts: 106969
Lоcаtion: Киев (Kyiv, UA)
Age: 45
Name: Andrey
:thanx:

_________________


Top
 Profile E-mail  
 
 
PostPosted: 03 Nov 2010 
Пионэръ
User avatar
Joined: 02 Jul 2010
Posts: 45
Lоcаtion: Сочи
Age: 46
Name: Борис
Отличный диск :meloman: :meloman:
Спасибо !! :true: :true:


Top
 Profile E-mail  
 
 
PostPosted: 30 Sep 2011 
Хиппей (support team)
User avatar
Joined: 30 Jul 2007
Posts: 106969
Lоcаtion: Киев (Kyiv, UA)
Age: 45
Name: Andrey
Вот и я подобрался к группе этой. Явно когда-то он у меня на кассете или даже виниле проскакивал.
В общем, кабы не вокал, смело можно спутать с первыми работами Whitesnake :pardon:
Альбом качественный, очень хороший, хитовый и всё такое. Классика хард-рока на блюзовой основе, так сказать. Маст хэв и прочие респекты.

Посему оценка высокая: 8/10

зы. Перезалью, как только место на винте найду для архивации файла...

_________________


Top
 Profile E-mail  
 
 
PostPosted: 30 Sep 2011 
Хиппей (support team)
User avatar
Joined: 30 Jul 2007
Posts: 106969
Lоcаtion: Киев (Kyiv, UA)
Age: 45
Name: Andrey
mirror: MultiUp l Narod

_________________


Top
 Profile E-mail  
 
Display posts from previous:  Sort by  
Post new topic Reply to topic  [ 7 posts ] 

All times are UTC + 3 hours


Who is online

Users browsing this forum: No registered users and 6 guests


You cannot post new topics in this forum
You cannot reply to topics in this forum
You cannot edit your posts in this forum
You cannot delete your posts in this forum
You cannot post attachments in this forum

Search for:
Яндекс.Метрика
Powered by phpBB © 2000, 2002, 2005, 2007 phpBB Group