\m/ 80's metal \m/

Информационно-аналитический форум "80 см пыли" (In Search We Trust) "У нас никто никуда не спешит"
Me For You - http://me-4u.com
It is currently 18 Oct 2018

All times are UTC + 3 hours

Spoiler
Chat - temporary registration for foreign users (please leave your application here)







Post new topic Reply to topic  [ 11 posts ] 
Author Message
 
PostPosted: 08 Oct 2010 
ыыыы
User avatar
Joined: 17 May 2009
Posts: 952
Lоcаtion: Пушкино, МО
Age: 40
Name: Дмитрий
Image


Жанр: Heavy Metal
Происхождение исполнителя: Англия
Год издания: 1987
Год издания данного носителя: 1987
Страна-производитель носителя: Западная Германия для Японии
Аудио кодек: FLAC
Тип рипа: image+.cue
Битрейт аудио: lossless
Продолжительность: 43:24
Рип: Собственный
Лейбл: VERTIGO/NIPPON PHONOGRAM
Каталоговый номер: 32PD-294
Матрица: 832 708-2 01 (PHILIPS-DUPONT OPTICAL)

Треклист:
1. The Shining 06:02
2. Ancient Warrior 05:35
3. Hard Life to Love 05:02
4. Glory Ride 04:50
5. Born to Lose 03:44
6. Nightmare 05:23
7. Scarlet Pimpernel 02:08
8. Lost Forever 04:05
9. Eternal Idol 06:35

"Куй"
REM GENRE "Hard Rock"
REM DATE 1987
REM DISCID 720A2C09
REM COMMENT "ExactAudioCopy v0.99pb5"
PERFORMER "Black Sabbath"
TITLE "The Eternal Idol [32PD-294]"
FILE "Black Sabbath - The Eternal Idol [32PD-294].flac" WAVE
TRACK 01 AUDIO
TITLE "The Shining"
PERFORMER "Black Sabbath"
INDEX 00 00:00:00
INDEX 01 00:00:33
TRACK 02 AUDIO
TITLE "Ancient Warrior"
PERFORMER "Black Sabbath"
INDEX 00 05:58:70
INDEX 01 06:02:20
TRACK 03 AUDIO
TITLE "Hard Life To Live"
PERFORMER "Black Sabbath"
INDEX 00 11:35:70
INDEX 01 11:37:33
TRACK 04 AUDIO
TITLE "Glory Ride"
PERFORMER "Black Sabbath"
INDEX 00 16:37:33
INDEX 01 16:39:33
TRACK 05 AUDIO
TITLE "Born To Lose"
PERFORMER "Black Sabbath"
INDEX 00 21:27:70
INDEX 01 21:29:33
TRACK 06 AUDIO
TITLE "Nightmare"
PERFORMER "Black Sabbath"
INDEX 01 25:13:43
TRACK 07 AUDIO
TITLE "Scarlet Pimpernel"
PERFORMER "Black Sabbath"
INDEX 00 30:34:33
INDEX 01 30:36:33
TRACK 08 AUDIO
TITLE "Lost Forever"
PERFORMER "Black Sabbath"
INDEX 00 32:43:20
INDEX 01 32:44:33
TRACK 09 AUDIO
TITLE "Eternal Idol"
PERFORMER "Black Sabbath"
INDEX 00 36:48:08
INDEX 01 36:49:33


"Лог"
Exact Audio Copy V0.99 prebeta 5 from 4. May 2009

Отчёт EAC об извлечении, выполненном 5. октября 2010, 10:07

Black Sabbath / The Eternal Idol [32PD-294]

Дисковод: Optiarc DVD RW AD-7200A Adapter: 1 ID: 0

Режим чтения : Достоверность
Использование точного потока : Да
Отключение кэша аудио : Да
Использование указателей C2 : Нет

Коррекция смещения при чтении : 48
Способность читать области Lead-in и Lead-out : Нет
Заполнение пропущенных сэмплов тишиной : Да
Удаление блоков с тишиной в начале и конце : Нет
При вычислениях CRC использовались нулевые сэмплы : Да
Интерфейс : Встроенный Win32-интерфейс для Win NT/2000

Выходной формат : Пользовательский кодировщик
Выбранный битрейт : 128 kBit/s
Качество : Высокий
Добавление ID3-тэга : Нет
Утилита сжатия : C:\Program Files\Exact Audio Copy\Flac\flac.exe
Дополнительные параметры : -8 -V -T "artist=%a" -T "title=%t" -T "album=%g" -T "date=%y" -T "tracknumber=%n" -T "genre=%m" -T "comment=EAC


TOC извлечённого CD

Трек | Старт | Длительность | Начальный сектор | Конечный сектор
---------------------------------------------------------------------
1 | 0:00.33 | 6:01.62 | 33 | 27169
2 | 6:02.20 | 5:35.13 | 27170 | 52307
3 | 11:37.33 | 5:02.00 | 52308 | 74957
4 | 16:39.33 | 4:50.00 | 74958 | 96707
5 | 21:29.33 | 3:44.10 | 96708 | 113517
6 | 25:13.43 | 5:22.65 | 113518 | 137732
7 | 30:36.33 | 2:08.00 | 137733 | 147332
8 | 32:44.33 | 4:05.00 | 147333 | 165707
9 | 36:49.33 | 6:35.25 | 165708 | 195357


Характеристики диапазона извлечения и сообщения об ошибках

Выбранный диапазон

Имя файла Y:\Музыка\Black Sabbath\1987 The Eternal Idol\Black Sabbath - The Eternal Idol [32PD-294].wav

Пиковый уровень 97.7 %
Качество диапазона 100.0 %
CRC копии 409E1BBC
Копирование... OK

Ошибок не произошло


AccurateRip: сводка

Трек 1 нет в базе данных
Трек 2 нет в базе данных
Трек 3 нет в базе данных
Трек 4 нет в базе данных
Трек 5 нет в базе данных
Трек 6 нет в базе данных
Трек 7 нет в базе данных
Трек 8 нет в базе данных
Трек 9 нет в базе данных

Ни одного трека нет в базе AccurateRip

Конец отчёта


Состав:
Tony Martin: Vocals
Tony Iommi: Guitar
Bob Daisley, Dave Spitz : Bass
Eric Singer: Drums
Geoff Nicholls: Keyboards
Bev Bevan: Percussion

32PD-294

spectrum
Attachment:
spectrum.jpg
spectrum.jpg [ 322.34 KiB | Viewed 110 times ]

_________________
Витасу до Даймонда как Алсу до Руссоса | При переразмещении - спрашивать разрешение!!


Top
 Profile  
 
 
PostPosted: 08 Oct 2010 
дядя Миша
User avatar
Joined: 17 Oct 2008
Posts: 3060
Lоcаtion: USSR
Age: 56
Name: Khy
Огромное спасибище........недавно слушал англ.версию.


Top
 Profile  
 
 
PostPosted: 08 Oct 2010 
Gretzky must die
User avatar
Joined: 16 Sep 2010
Posts: 263
Lоcаtion: Московская обл.
Name: Андрей
Тотальное спасибо ! Альбом, ознаменовавший начало самого классного (для меня !) периода Black Sabbath ! :thanx:


Top
 Profile  
 
 
PostPosted: 08 Oct 2010 
Персональный статус
Joined: 14 May 2010
Posts: 236
Age: 37
Name: Денис
как по мне, так у iommi провалов не было. про 94 и 95 не знаю, как-то выпали у меня, не слушал их толком. надо было ему вывеску сменить, тогда ещё, после Оззи.


Top
 Profile  
 
 
PostPosted: 08 Oct 2010 
А может смените мне статус?..
User avatar
Joined: 24 Dec 2008
Posts: 618
Age: 44
Name: Дмитрий
Спасибо, обновлю.
Раньше группа не нравилась, недавно послушал - а вроде и ничего так! Стареем... :pardon:


Top
 Profile  
 
 
PostPosted: 08 Oct 2010 
Работнечег
User avatar
Joined: 28 Aug 2007
Posts: 5468
Lоcаtion: г. Москва
Age: 29
Name: Дима
Люблю альбомы с Мартиным, пожалуй кроме 1995.Спасибо Дим!


Top
 Profile E-mail  
 
 
PostPosted: 09 Oct 2010 
Хиппей (support team)
User avatar
Joined: 30 Jul 2007
Posts: 106979
Lоcаtion: Киев (Kyiv, UA)
Age: 45
Name: Andrey
Спасибо, Дим! :thanx:
Как обычно, впервые вижу обложку альбома =)

_________________


Top
 Profile E-mail  
 
 
PostPosted: 09 Oct 2010 
Пионэръ
Joined: 08 Mar 2010
Posts: 36
Lоcаtion: Россия
Age: 38
Name: Иван
)))))))))))


Top
 Profile E-mail  
 
 
PostPosted: 09 Oct 2010 
А может смените мне статус?..
User avatar
Joined: 08 Nov 2007
Posts: 634
Lоcаtion: Crimea, UA
Age: 32
Name: Анатолий
:thanx:

Спасибо!


Top
 Profile  
 
 
PostPosted: 05 Oct 2011 
Хиппей (support team)
User avatar
Joined: 30 Jul 2007
Posts: 106979
Lоcаtion: Киев (Kyiv, UA)
Age: 45
Name: Andrey
...и к этому альбому добрался... :dance:
Красотень :true: Оказывается, я его слушал и очень часто :umnik:
Мартин рулит, Айомми жжот, Боб Дэйзи басит, а... остальных я не помню :pardon:

7+/10

Архив явно сегодня обновлю...

_________________


Top
 Profile E-mail  
 
 
PostPosted: 06 Oct 2011 
Хиппей (support team)
User avatar
Joined: 30 Jul 2007
Posts: 106979
Lоcаtion: Киев (Kyiv, UA)
Age: 45
Name: Andrey
mirror: MultiUp l Narod

_________________


Top
 Profile E-mail  
 
Display posts from previous:  Sort by  
Post new topic Reply to topic  [ 11 posts ] 

All times are UTC + 3 hours


Who is online

Users browsing this forum: No registered users and 3 guests


You cannot post new topics in this forum
You cannot reply to topics in this forum
You cannot edit your posts in this forum
You cannot delete your posts in this forum
You cannot post attachments in this forum

Search for:
Яндекс.Метрика
Powered by phpBB © 2000, 2002, 2005, 2007 phpBB Group