\m/ 80's metal \m/

Информационно-аналитический форум "80 см пыли" (In Search We Trust) "У нас никто никуда не спешит"
Me For You - http://me-4u.com
It is currently 22 Oct 2018

All times are UTC + 3 hours

Spoiler
Chat - temporary registration for foreign users (please leave your application here)







Post new topic Reply to topic  [ 3 posts ] 
Author Message
 
PostPosted: 28 Sep 2010 
metallpaparazzy
User avatar
Joined: 20 Dec 2009
Posts: 674
Lоcаtion: Днепропетровск
Age: 43
Name: Геннадий
Image

Freakshow
Studio album by BulletBoys
Released 1991
Recorded 1991
Genre Hair metal
Label Warner Bros. Records
Producer Ted Templeman

Freakshow is the second album from the hair metal band BulletBoys, released in 1991 by Warner Bros. Records.

Personnel
Marq Torien: Lead Vocals
Mick Sweda: Guitar
Lonnie Vencent: Bass
Jimmy D'Anda: Drums

1.Hell Yeah! - 3:19
2.THC Groove - 3:33
3.Thrill That Kills - 3:06
4.Hang On St. Christopher (Tom Waits cover) - 3:48
5.Talk To Your Daughter -
6.Freakshow - 3:33
7.Good Girl - 4:22
8.Do Me Raw - 3:08
9.Ripping Me - 2:52
10.Say Your Prayers - 3:13
11.O Me O My - 2:59
12.Huge - 3:03
cue
REM GENRE "Hard Rock"
REM DATE 1991
REM DISCID 9809B80C
REM COMMENT "ExactAudioCopy v0.95b4"
PERFORMER "BulletBoys"
TITLE "Freakshow"
FILE "BulletBoys - Freakshow.wav" WAVE
TRACK 01 AUDIO
TITLE "Hell Yeah!"
PERFORMER "BulletBoys"
INDEX 00 00:00:00
INDEX 01 00:00:32
TRACK 02 AUDIO
TITLE "Thc Groove"
PERFORMER "BulletBoys"
INDEX 00 03:23:72
INDEX 01 03:25:00
TRACK 03 AUDIO
TITLE "Thrill That Kills"
PERFORMER "BulletBoys"
INDEX 00 07:08:10
INDEX 01 07:09:55
TRACK 04 AUDIO
TITLE "Hang on St. Christopher"
PERFORMER "BulletBoys"
INDEX 00 10:19:60
INDEX 01 10:21:45
TRACK 05 AUDIO
TITLE "Talk To Your Daughter"
PERFORMER "BulletBoys"
INDEX 00 14:18:55
INDEX 01 14:20:10
TRACK 06 AUDIO
TITLE "Freakshow"
PERFORMER "BulletBoys"
INDEX 00 17:56:50
INDEX 01 17:57:07
TRACK 07 AUDIO
TITLE "Goodgirl"
PERFORMER "BulletBoys"
INDEX 00 22:24:55
INDEX 01 22:26:37
TRACK 08 AUDIO
TITLE "Do Me Raw"
PERFORMER "BulletBoys"
INDEX 01 25:54:25
TRACK 09 AUDIO
TITLE "Ripping Me"
PERFORMER "BulletBoys"
INDEX 00 29:05:12
INDEX 01 29:06:05
TRACK 10 AUDIO
TITLE "Say Your Prayers"
PERFORMER "BulletBoys"
INDEX 00 32:02:25
INDEX 01 32:04:00
TRACK 11 AUDIO
TITLE "O Me O My"
PERFORMER "BulletBoys"
INDEX 00 35:19:27
INDEX 01 35:21:20
TRACK 12 AUDIO
TITLE "Huge"
PERFORMER "BulletBoys"
INDEX 00 38:23:05
INDEX 01 38:23:20

log
Отчёт EAC об извлечении, выполненном 28. сентября 2010, 0:14 для диска:
BulletBoys / Freakshow

Дисковод: Optiarc DVD RW AD-7170S Adapter: 1 ID: 1
Режим чтения: Достоверный (C2: нет, Точный поток: да, Отключение кэша: да)
Коррекция смещения при чтении: 48
Способность читать области Lead-in и Lead-out : Нет

Выходной формат: Внутренние WAV-операции
44.100 Гц; 16 бит; стерео

Другие параметры:
Заполнение пропущенных сэмплов тишиной : Да
Удаление блоков с тишиной в начале и конце : Нет
Установленный внешний ASPI-интерфейс


Характеристики диапазона извлечения и сообщения об ошибках
Выбранный диапазон
Имя файла D:\METAL\ЛОСИ\МОИ\BulletBoys 91\BulletBoys - Freakshow.wav

Пиковый уровень 94.5 %
Качество диапазона 99.9 %
CRC E8CE1837
Копирование... OK

Ошибок не произошло

Конец отчёта


Рип мой, попалась фирма на балке. Плакатик слепил не очень :pardon: , кому надо -- могу скинуть куски-оригиналы, сами склеете, как посчитаете нужным... :oops: но весят они аж 200 :shok: метров!
http://www.multiupload.com/97BT8UOKYW (flac)
http://www.multiupload.com/G3W3QWO3YB [320]


Top
 Profile E-mail  
 
 
PostPosted: 28 Sep 2010 
Хиппей (support team)
User avatar
Joined: 30 Jul 2007
Posts: 107108
Lоcаtion: Киев (Kyiv, UA)
Age: 45
Name: Andrey
:true: :thanx:

_________________


Top
 Profile E-mail  
 
 
PostPosted: 28 Sep 2010 
Труъ
User avatar
Joined: 14 Jul 2010
Posts: 104
Lоcаtion: Украина, Донецк
Age: 33
Name: Санёк
Альбомчик хороший, еще 12 лет назад слышал его. Очень напоминает Van Halen с Девидом Ли Ротом. Особенно хороша Thrill that kills :true:

_________________
Rock 'N' Roll is the only thing that keeps me from breaking apart (c)


Top
 Profile E-mail  
 
Display posts from previous:  Sort by  
Post new topic Reply to topic  [ 3 posts ] 

All times are UTC + 3 hours


Who is online

Users browsing this forum: No registered users and 3 guests


You cannot post new topics in this forum
You cannot reply to topics in this forum
You cannot edit your posts in this forum
You cannot delete your posts in this forum
You cannot post attachments in this forum

Search for:
Яндекс.Метрика
Powered by phpBB © 2000, 2002, 2005, 2007 phpBB Group