\m/ 80's metal \m/

Информационно-аналитический форум "80 см пыли" (In Search We Trust) "У нас никто никуда не спешит"
Me For You - http://me-4u.com
It is currently 23 Oct 2018

All times are UTC + 3 hours

Spoiler
Chat - temporary registration for foreign users (please leave your application here)







Post new topic Reply to topic  [ 6 posts ] 
Author Message
 
PostPosted: 16 Sep 2010 
ыыыы
User avatar
Joined: 17 May 2009
Posts: 952
Lоcаtion: Пушкино, МО
Age: 40
Name: Дмитрий
Image


Жанр: Heavy Metal
Происхождение исполнителя: Англия
Год издания: 1977
Год издания данного носителя: 1986
Страна-производитель носителя: Япония для Европы
Аудио кодек: FLAC
Тип рипа: image+.cue
Битрейт аудио: lossless
Продолжительность: 60:15
Рип: Собственный
Лейбл: CASTLE
Каталоговый номер: NELCD 6009
Матрица: NELCD-6009 1A1 TO (TOSHIBA)

Треклист:
1. Paranoid 02:46
2. N.I.B. 06:02
3. Changes 04:42
4. Sabbath Bloody Sabbath 05:41
5. Iron Man 05:54
6. Black Sabbath 06:15
7. War Pigs 07:54
8. Laguna Sunrise 02:47
9. Tomorrow's Dream 03:07
10. Sweet Leaf 05:02
11. After Forever 05:25
12. Snowblind (live) 04:41

"Куй"
REM GENRE "Hard Rock"
REM DATE 1977
REM DISCID 8C0E1F0C
REM COMMENT "ExactAudioCopy v0.99pb5"
PERFORMER "Black Sabbath"
TITLE "Greatest Hits [NELCD 6009]"
FILE "Black Sabbath - Greatest Hits [NELCD 6009].flac" WAVE
TRACK 01 AUDIO
TITLE "Paranoid"
PERFORMER "Black Sabbath"
FLAGS PRE
INDEX 01 00:00:00
TRACK 02 AUDIO
TITLE "N.I.B."
PERFORMER "Black Sabbath"
FLAGS PRE
INDEX 01 02:46:25
TRACK 03 AUDIO
TITLE "Changes"
PERFORMER "Black Sabbath"
FLAGS PRE
INDEX 01 08:48:45
TRACK 04 AUDIO
TITLE "Sabbath Bloody Sabbath"
PERFORMER "Black Sabbath"
FLAGS PRE
INDEX 01 13:30:12
TRACK 05 AUDIO
TITLE "Iron Man"
PERFORMER "Black Sabbath"
FLAGS PRE
INDEX 00 19:10:05
INDEX 01 19:10:72
TRACK 06 AUDIO
TITLE "Black Sabbath"
PERFORMER "Black Sabbath"
FLAGS PRE
INDEX 01 25:04:42
TRACK 07 AUDIO
TITLE "War Pigs"
PERFORMER "Black Sabbath"
FLAGS PRE
INDEX 01 31:20:02
TRACK 08 AUDIO
TITLE "Laguna Sunrise"
PERFORMER "Black Sabbath"
FLAGS PRE
INDEX 00 39:13:00
INDEX 01 39:13:70
TRACK 09 AUDIO
TITLE "Tomorrows Dream"
PERFORMER "Black Sabbath"
FLAGS PRE
INDEX 01 42:00:72
TRACK 10 AUDIO
TITLE "Sweet Leaf"
PERFORMER "Black Sabbath"
FLAGS PRE
INDEX 01 45:07:57
TRACK 11 AUDIO
TITLE "After Forever"
PERFORMER "Black Sabbath"
FLAGS PRE
INDEX 01 50:09:32
TRACK 12 AUDIO
TITLE "Snowblind (live)"
PERFORMER "Black Sabbath"
FLAGS PRE
INDEX 01 55:34:25


"Лог"
Exact Audio Copy V0.99 prebeta 5 from 4. May 2009

Отчёт EAC об извлечении, выполненном 16. сентября 2010, 10:41

Black Sabbath / Greatest Hits [NELCD 6009]

Дисковод: Optiarc DVD RW AD-7200A Adapter: 1 ID: 0

Режим чтения : Достоверность
Использование точного потока : Да
Отключение кэша аудио : Да
Использование указателей C2 : Нет

Коррекция смещения при чтении : 48
Способность читать области Lead-in и Lead-out : Нет
Заполнение пропущенных сэмплов тишиной : Да
Удаление блоков с тишиной в начале и конце : Нет
При вычислениях CRC использовались нулевые сэмплы : Да
Интерфейс : Встроенный Win32-интерфейс для Win NT/2000

Выходной формат : Пользовательский кодировщик
Выбранный битрейт : 128 kBit/s
Качество : Высокий
Добавление ID3-тэга : Нет
Утилита сжатия : C:\Program Files\Exact Audio Copy\Flac\flac.exe
Дополнительные параметры : -8 -V -T "artist=%a" -T "title=%t" -T "album=%g" -T "date=%y" -T "tracknumber=%n" -T "genre=%m" -T "comment=EAC


TOC извлечённого CD

Трек | Старт | Длительность | Начальный сектор | Конечный сектор
---------------------------------------------------------------------
1 | 0:00.00 | 2:46.25 | 0 | 12474
2 | 2:46.25 | 6:02.20 | 12475 | 39644
3 | 8:48.45 | 4:41.42 | 39645 | 60761
4 | 13:30.12 | 5:40.60 | 60762 | 86321
5 | 19:10.72 | 5:53.45 | 86322 | 112841
6 | 25:04.42 | 6:15.35 | 112842 | 141001
7 | 31:20.02 | 7:53.68 | 141002 | 176544
8 | 39:13.70 | 2:47.02 | 176545 | 189071
9 | 42:00.72 | 3:06.60 | 189072 | 203081
10 | 45:07.57 | 5:01.50 | 203082 | 225706
11 | 50:09.32 | 5:24.68 | 225707 | 250074
12 | 55:34.25 | 4:40.62 | 250075 | 271136


Характеристики диапазона извлечения и сообщения об ошибках

Выбранный диапазон

Имя файла Y:\Музыка\Black Sabbath\1977 Greatest Hits\Black Sabbath - Greatest Hits [NELCD 6009].wav

Пиковый уровень 100.0 %
Качество диапазона 99.9 %
CRC копии 5BEBE051
Копирование... OK

Ошибок не произошло


AccurateRip: сводка

Трек 1 точное извлечение (доверие 2) [994445B0]
Трек 2 точное извлечение (доверие 2) [1AF8F6A3]
Трек 3 точное извлечение (доверие 2) [180C97B6]
Трек 4 точное извлечение (доверие 2) [0E51FF59]
Трек 5 точное извлечение (доверие 2) [B326FFD3]
Трек 6 точное извлечение (доверие 2) [A6CEC7B2]
Трек 7 точное извлечение (доверие 2) [B13DC0DC]
Трек 8 точное извлечение (доверие 2) [BAE62EC0]
Трек 9 точное извлечение (доверие 2) [77FC5F3F]
Трек 10 точное извлечение (доверие 2) [4D277987]
Трек 11 точное извлечение (доверие 2) [B1B9CC26]
Трек 12 точное извлечение (доверие 2) [F2CA7BF3]

Все треки извлечены точно

Конец отчёта


Состав:
Ozzy Osbourne: Vocals, harmonica
Tony Iommi: Guitar
Terrance "Geezer" Butler: Bass
Bill Ward: Drums

NELCD 6009

spectrum
Attachment:
spectrum.jpg
spectrum.jpg [ 313.46 KiB | Viewed 116 times ]

_________________
Витасу до Даймонда как Алсу до Руссоса | При переразмещении - спрашивать разрешение!!


Last edited by iezuit on 16 Sep 2010, edited 1 time in total.

Top
 Profile  
 
 
PostPosted: 16 Sep 2010 
Персональный статус
Joined: 14 May 2010
Posts: 236
Age: 37
Name: Денис
А вот и он! ;)


Top
 Profile  
 
 
PostPosted: 20 Nov 2010 
Зарегился вот...
User avatar
Joined: 17 Feb 2010
Posts: 9
Lоcаtion: Липецк
Name: Сергей
Спасибо, японца еще не слышал!

_________________
Heavy metal is the law!


Top
 Profile E-mail  
 
 
PostPosted: 24 Nov 2010 
Хиппей (support team)
User avatar
Joined: 30 Jul 2007
Posts: 107127
Lоcаtion: Киев (Kyiv, UA)
Age: 45
Name: Andrey
:thanx:

_________________


Top
 Profile E-mail  
 
 
PostPosted: 06 Oct 2011 
Хиппей (support team)
User avatar
Joined: 30 Jul 2007
Posts: 107127
Lоcаtion: Киев (Kyiv, UA)
Age: 45
Name: Andrey
Не пойму, кому нужны подобные сборники?... :vic:
Отслушал данный альбом не без удовольствия, но создалось впечаталение... что я уже не одну сотню раз это всё слышал раньше :crazy:

На днях перезалью архив...

_________________


Top
 Profile E-mail  
 
 
PostPosted: 06 Oct 2011 
Хиппей (support team)
User avatar
Joined: 30 Jul 2007
Posts: 107127
Lоcаtion: Киев (Kyiv, UA)
Age: 45
Name: Andrey
mirror: MultiUp l Narod

_________________


Top
 Profile E-mail  
 
Display posts from previous:  Sort by  
Post new topic Reply to topic  [ 6 posts ] 

All times are UTC + 3 hours


Who is online

Users browsing this forum: No registered users and 2 guests


You cannot post new topics in this forum
You cannot reply to topics in this forum
You cannot edit your posts in this forum
You cannot delete your posts in this forum
You cannot post attachments in this forum

Search for:
Яндекс.Метрика
cron
Powered by phpBB © 2000, 2002, 2005, 2007 phpBB Group