\m/ 80's metal \m/

Информационно-аналитический форум "80 см пыли" (In Search We Trust) "У нас никто никуда не спешит"
Me For You - http://me-4u.com
It is currently 24 Oct 2018

All times are UTC + 3 hours

Spoiler
Chat - temporary registration for foreign users (please leave your application here)







Post new topic Reply to topic  [ 4 posts ] 
Author Message
 
PostPosted: 02 Sep 2010 
ыыыы
User avatar
Joined: 17 May 2009
Posts: 952
Lоcаtion: Пушкино, МО
Age: 40
Name: Дмитрий
Image


Жанр: Hard Rock
Происхождение исполнителя: США
Год издания: 1988
Год издания данного носителя: 1988
Страна-производитель носителя: Япония
Аудио кодек: FLAC
Тип рипа: image+.cue
Битрейт аудио: lossless
Продолжительность: 48:09
Рип: Собственный
Лейбл: COLUMBIA/CBS-SONY
Каталоговый номер: 25DP-5171
Матрица: DPA-638 1 (SONY)

Треклист:
1. Girlschool 04:40
2. Long Way To Love 04:55
3. Kick'N'Fight 03:38
4. Save The Weak 05:29
5. Fun In Texas 04:30
6. Rock Revolution 04:43
7. Don't Hide 04:50
8. Gudbye T' Jane (Slade cover) 04:29
9. In America 04:26
10. Hold On 03:32
11. Livin' On The Edge 02:54

"Куй"
REM GENRE "Hard Rock"
REM DATE 1988
REM DISCID A80B480B
REM COMMENT "ExactAudioCopy v0.99pb5"
PERFORMER "Britny Fox"
TITLE "Britny Fox [25DP-5171]"
FILE "Britny Fox - Britny Fox [25DP-5171].flac" WAVE
TRACK 01 AUDIO
TITLE "Girlschool"
PERFORMER "Britny Fox"
INDEX 01 00:00:00
TRACK 02 AUDIO
TITLE "Long Way To Love"
PERFORMER "Britny Fox"
INDEX 01 04:40:37
TRACK 03 AUDIO
TITLE "Kick 'N' Fight"
PERFORMER "Britny Fox"
INDEX 01 09:35:65
TRACK 04 AUDIO
TITLE "Save The Weak"
PERFORMER "Britny Fox"
INDEX 00 13:13:00
INDEX 01 13:13:62
TRACK 05 AUDIO
TITLE "Fun In Texas"
PERFORMER "Britny Fox"
INDEX 01 18:43:00
TRACK 06 AUDIO
TITLE "Rock Revolution"
PERFORMER "Britny Fox"
INDEX 00 23:12:12
INDEX 01 23:13:37
TRACK 07 AUDIO
TITLE "Don't Hide"
PERFORMER "Britny Fox"
INDEX 00 27:54:25
INDEX 01 27:56:50
TRACK 08 AUDIO
TITLE "Gudbuy T'June"
PERFORMER "Britny Fox"
INDEX 01 32:46:62
TRACK 09 AUDIO
TITLE "In America"
PERFORMER "Britny Fox"
INDEX 00 37:13:62
INDEX 01 37:15:50
TRACK 10 AUDIO
TITLE "Hold On"
PERFORMER "Britny Fox"
INDEX 01 41:42:12
TRACK 11 AUDIO
TITLE "Living On The Edge"
PERFORMER "Britny Fox"
INDEX 00 45:13:25
INDEX 01 45:14:37


"Лог"
Exact Audio Copy V0.99 prebeta 5 from 4. May 2009

Отчёт EAC об извлечении, выполненном 22. марта 2010, 23:12

Britny Fox / Britny Fox [25DP-5171]

Дисковод: MATSHITADVD-RAM UJ-850S Adapter: 0 ID: 0

Режим чтения : Достоверность
Использование точного потока : Да
Отключение кэша аудио : Да
Использование указателей C2 : Нет

Коррекция смещения при чтении : 102
Способность читать области Lead-in и Lead-out : Нет
Заполнение пропущенных сэмплов тишиной : Да
Удаление блоков с тишиной в начале и конце : Нет
При вычислениях CRC использовались нулевые сэмплы : Нет
Интерфейс : Установленный внешний ASPI-интерфейс

Выходной формат : Пользовательский кодировщик
Выбранный битрейт : 128 kBit/s
Качество : Высокий
Добавление ID3-тэга : Нет
Утилита сжатия : C:\Program Files\Exact Audio Copy\Flac\flac.exe
Дополнительные параметры : -6 -V -T "artist=%a" -T "title=%t" -T "album=%g" -T "date=%y" -T "tracknumber=%n" -T "genre=%m" -T "comment=EAC 0.9beta4 / FLAC 1.1.0 q6" %s


TOC извлечённого CD

Трек | Старт | Длительность | Начальный сектор | Конечный сектор
---------------------------------------------------------------------
1 | 0:00.00 | 4:40.37 | 0 | 21036
2 | 4:40.37 | 4:55.28 | 21037 | 43189
3 | 9:35.65 | 3:37.72 | 43190 | 59536
4 | 13:13.62 | 5:29.13 | 59537 | 84224
5 | 18:43.00 | 4:30.37 | 84225 | 104511
6 | 23:13.37 | 4:43.13 | 104512 | 125749
7 | 27:56.50 | 4:50.12 | 125750 | 147511
8 | 32:46.62 | 4:28.63 | 147512 | 167674
9 | 37:15.50 | 4:26.37 | 167675 | 187661
10 | 41:42.12 | 3:32.25 | 187662 | 203586
11 | 45:14.37 | 2:54.13 | 203587 | 216649


Характеристики диапазона извлечения и сообщения об ошибках

Выбранный диапазон

Имя файла Z:\Музыка\Britny Fox\1988 Britny Fox\Britny Fox - Britny Fox [25DP-5171].wav

Подозрительная позиция 0:48:07

Пиковый уровень 100.0 %
Качество диапазона 99.9 %
CRC копии 7EAB586B
Копирование завершено

Были ошибки


AccurateRip: сводка

Трек 1 нет в базе данных
Трек 2 нет в базе данных
Трек 3 нет в базе данных
Трек 4 нет в базе данных
Трек 5 нет в базе данных
Трек 6 нет в базе данных
Трек 7 нет в базе данных
Трек 8 нет в базе данных
Трек 9 нет в базе данных
Трек 10 нет в базе данных
Трек 11 нет в базе данных

Ни одного трека нет в базе AccurateRip

Конец отчёта


Состав:
Dean "Dizzy" Davidson: Lead Vocals, Rhythm Guitar
Michael Kelly Smith: Guitar
Billy Childs: Bass
Johnny Dee: Drums
David Gibbins: Additional keyboard

25DP-5171

_________________
Витасу до Даймонда как Алсу до Руссоса | При переразмещении - спрашивать разрешение!!


Top
 Profile  
 
 
PostPosted: 03 Sep 2010 
Персональный статус
Joined: 14 May 2010
Posts: 236
Age: 37
Name: Денис
Отлично пошло. Спасибо!

Золушку напоминает вроде. :umnik: О! Кавер на слэйд. :true:


Top
 Profile  
 
 
PostPosted: 03 Sep 2010 
дядя Миша
User avatar
Joined: 17 Oct 2008
Posts: 3061
Lоcаtion: USSR
Age: 56
Name: Khy
СпасибОО! Сразу переслушал....... под игрушку.


Top
 Profile  
 
 
PostPosted: 03 Sep 2010 
А может смените мне статус?..
User avatar
Joined: 01 Jun 2008
Posts: 559
Lоcаtion: Россия
Age: 42
Name: Вадик
Группа отличная! Сейчас, кстати, российские пираты выпустили все альбомы Britny Fox.


Top
 Profile  
 
Display posts from previous:  Sort by  
Post new topic Reply to topic  [ 4 posts ] 

All times are UTC + 3 hours


Who is online

Users browsing this forum: No registered users and 2 guests


You cannot post new topics in this forum
You cannot reply to topics in this forum
You cannot edit your posts in this forum
You cannot delete your posts in this forum
You cannot post attachments in this forum

Search for:
Яндекс.Метрика
Powered by phpBB © 2000, 2002, 2005, 2007 phpBB Group