\m/ 80's metal \m/

Информационно-аналитический форум "80 см пыли" (In Search We Trust) "У нас никто никуда не спешит"
Me For You - http://me-4u.com
It is currently 19 Dec 2018

All times are UTC + 3 hours

Spoiler
Chat - temporary registration for foreign users (please leave your application here)







Post new topic Reply to topic  [ 5 posts ] 
Author Message
 
PostPosted: 05 Jul 2010 
ыыыы
User avatar
Joined: 17 May 2009
Posts: 952
Lоcаtion: Пушкино, МО
Age: 40
Name: Дмитрий
Image


Жанр: Hard Rock
Происхождение исполнителя: Германия
Год издания: 1986
Год издания данного носителя: 1987
Страна-производитель носителя: Япония
Аудио кодек: FLAC
Тип рипа: image+.cue
Битрейт аудио: lossless
Продолжительность: 37:56
Рип: Собственный
Лейбл: MSA/VICTOR
Каталоговый номер: R32P-1107
Матрица: R32P-1107-V1E 11 (JVC)

Треклист:
1. Intro 01:58
2. Starin' Eyes 04:10
3. Hot to Rock 04:12
4. You Make Me Feel 04:44
5. Longing for You 03:45
6. Don’t Touch the Light 04:31
7. SDI 05:47
8. No More 04:10
9. L.A. 04:39

"Куй"
REM GENRE Rock
REM DATE 1987
REM DISCID 4808E509
REM COMMENT "ExactAudioCopy v0.99pb5"
PERFORMER "Bonfire"
TITLE "Don't Touch The Light [R32P-1107]"
FILE "Bonfire - Don't Touch The Light [R32P-1107].flac" WAVE
TRACK 01 AUDIO
TITLE "Intro"
PERFORMER "Bonfire"
INDEX 00 00:00:00
INDEX 01 00:00:37
TRACK 02 AUDIO
TITLE "Starin' Eyes"
PERFORMER "Bonfire"
INDEX 01 01:59:25
TRACK 03 AUDIO
TITLE "Hot To Rock"
PERFORMER "Bonfire"
INDEX 01 06:08:42
TRACK 04 AUDIO
TITLE "You Make Me Feel"
PERFORMER "Bonfire"
INDEX 00 10:19:65
INDEX 01 10:20:57
TRACK 05 AUDIO
TITLE "Longing For You"
PERFORMER "Bonfire"
INDEX 00 15:02:43
INDEX 01 15:05:12
TRACK 06 AUDIO
TITLE "Don't Touch The Light"
PERFORMER "Bonfire"
INDEX 00 18:49:28
INDEX 01 18:50:25
TRACK 07 AUDIO
TITLE "SDI"
PERFORMER "Bonfire"
INDEX 01 23:21:00
TRACK 08 AUDIO
TITLE "No More"
PERFORMER "Bonfire"
INDEX 01 29:08:07
TRACK 09 AUDIO
TITLE "L.A."
PERFORMER "Bonfire"
INDEX 00 33:16:60
INDEX 01 33:18:00


"Лог"
Exact Audio Copy V0.99 prebeta 5 from 4. May 2009

Отчёт EAC об извлечении, выполненном 18. мая 2010, 20:35

Bonfire / Don't Touch The Light [R32P-1107]

Дисковод: MATSHITADVD-RAM UJ-850S Adapter: 0 ID: 0

Режим чтения : Достоверность
Использование точного потока : Да
Отключение кэша аудио : Да
Использование указателей C2 : Нет

Коррекция смещения при чтении : 102
Способность читать области Lead-in и Lead-out : Нет
Заполнение пропущенных сэмплов тишиной : Да
Удаление блоков с тишиной в начале и конце : Нет
При вычислениях CRC использовались нулевые сэмплы : Да
Интерфейс : Установленный внешний ASPI-интерфейс

Выходной формат : Пользовательский кодировщик
Выбранный битрейт : 128 kBit/s
Качество : Высокий
Добавление ID3-тэга : Нет
Утилита сжатия : C:\Program Files\Exact Audio Copy\Flac\flac.exe
Дополнительные параметры : -6 -V -T "artist=%a" -T "title=%t" -T "album=%g" -T "date=%y" -T "tracknumber=%n" -T "genre=%m" -T "comment=EAC 0.99beta5 / FLAC 1.1.0 q6" %s


TOC извлечённого CD

Трек | Старт | Длительность | Начальный сектор | Конечный сектор
---------------------------------------------------------------------
1 | 0:00.37 | 1:58.63 | 37 | 8949
2 | 1:59.25 | 4:09.17 | 8950 | 27641
3 | 6:08.42 | 4:12.15 | 27642 | 46556
4 | 10:20.57 | 4:44.30 | 46557 | 67886
5 | 15:05.12 | 3:45.13 | 67887 | 84774
6 | 18:50.25 | 4:30.50 | 84775 | 105074
7 | 23:21.00 | 5:47.07 | 105075 | 131106
8 | 29:08.07 | 4:09.68 | 131107 | 149849
9 | 33:18.00 | 4:39.00 | 149850 | 170774


Характеристики диапазона извлечения и сообщения об ошибках

Выбранный диапазон

Имя файла Y:\Музыка\Bonfire\1987 Don't Touch The Light\Bonfire - Don't Touch The Light [R32P-1107].wav

Пиковый уровень 88.7 %
Качество диапазона 100.0 %
CRC копии F3962B3A
Копирование... OK

Ошибок не произошло


AccurateRip: сводка

Трек 1 нет в базе данных
Трек 2 нет в базе данных
Трек 3 нет в базе данных
Трек 4 нет в базе данных
Трек 5 нет в базе данных
Трек 6 нет в базе данных
Трек 7 нет в базе данных
Трек 8 нет в базе данных
Трек 9 нет в базе данных

Ни одного трека нет в базе AccurateRip

Конец отчёта


Состав:
Claus Lessmann: Lead & backing vocals
Hans Ziller: Lead & acoustic guitars, backing vocals
Horst Maier: Lead guitar, backing vocals
Joerg Deisinger: Bass, backing vocals
Dominik Huelshorst: Drums, percussion, backing vocals

R32P-1107
Фото

_________________
Витасу до Даймонда как Алсу до Руссоса | При переразмещении - спрашивать разрешение!!


Top
 Profile  
 
 
PostPosted: 06 Jul 2010 
Пионэръ
User avatar
Joined: 02 Jul 2010
Posts: 45
Lоcаtion: Сочи
Age: 46
Name: Борис
СПАСИБО !! :thanx: :thanx: :thanx: :thanx: :thanx: :thanx:
Хороший звук :meloman: :meloman: :meloman:


Top
 Profile E-mail  
 
 
PostPosted: 27 Jun 2011 
Я набрал 1000 сообщений!
User avatar
Joined: 22 Jun 2011
Posts: 1412
Lоcаtion: Украина, Донецк.
Age: 48
Name: Сергей
это первая купленная мной пластинка! 65 рублей отдал когда-то :oops: тут из-за мелкого масштаба не видно, на девочке кроссовки Саламандра, распространённая в то время модель, у меня такие же были :crazy:
на текстовой вкладке была благодарность группе Accept, без особых разъяснений.
----------------------
перезалейте пожалуйста :thanx:


Top
 Profile E-mail  
 
 
PostPosted: 27 Jun 2011 
Хиппей (support team)
User avatar
Joined: 30 Jul 2007
Posts: 109030
Lоcаtion: Киев (Kyiv, UA)
Age: 45
Name: Andrey
Все Димкины рипы есть на Рутрахторе :dance: http://rutracker.org/forum/viewtopic.php?t=3049174

Или перелить на обменники?

_________________


Top
 Profile E-mail  
 
 
PostPosted: 27 Jun 2011 
Я набрал 1000 сообщений!
User avatar
Joined: 22 Jun 2011
Posts: 1412
Lоcаtion: Украина, Донецк.
Age: 48
Name: Сергей
спасибо, скачаю там! :)


Top
 Profile E-mail  
 
Display posts from previous:  Sort by  
Post new topic Reply to topic  [ 5 posts ] 

All times are UTC + 3 hours


Who is online

Users browsing this forum: No registered users and 2 guests


You cannot post new topics in this forum
You cannot reply to topics in this forum
You cannot edit your posts in this forum
You cannot delete your posts in this forum
You cannot post attachments in this forum

Search for:
Яндекс.Метрика
Powered by phpBB © 2000, 2002, 2005, 2007 phpBB Group