\m/ 80's metal \m/

Информационно-аналитический форум "80 см пыли" (In Search We Trust) "У нас никто никуда не спешит"
Me For You - http://me-4u.com
It is currently 16 Dec 2018

All times are UTC + 3 hours

Spoiler
Chat - temporary registration for foreign users (please leave your application here)







Post new topic Reply to topic  [ 21 posts ]  Go to page 1, 2  Next
Author Message
 
PostPosted: 14 May 2010 
Персональный статус
Joined: 02 Apr 2010
Posts: 223
Name: Андрей
Может быть завалялся у кого этот альбомец?

BRIGHTON ROCK - "Love Machine"
Hard Rock
1991

Image
Image

Tracks

1. Bulletproof 3:55
2. Hollywood Shuffle 4:08
3. Love Machine 5:00
4. Still the One 4:19
5. Mr. Mistreater 4:13
6. Nightstalker 5:28
7. Love in a Bottle 4:31
8. Nothin' to Lose 3:40
9. Heart of Steel 4:33
10. Cocaine 3:06
11. Magic is Back 5:56

Personnel

Gerry McGhee -lead vocals
Greg Fraser - guitars, vocals
Mark Cavarzan - drums, percussion
Stevie Skreebs - bass, vocals

http://www.heavyharmonies.com/cgi-bin/glamcd.cgi?BandNum=497&CDName=Love+Machine


Top
 Profile  
 
 
PostPosted: 24 Apr 2011 
Персональный статус
Joined: 02 Apr 2010
Posts: 223
Name: Андрей
Уже нашёл сам... :true: :pardon:


Top
 Profile  
 
 
PostPosted: 24 Apr 2011 
Хиппей (support team)
User avatar
Joined: 30 Jul 2007
Posts: 108945
Lоcаtion: Киев (Kyiv, UA)
Age: 45
Name: Andrey
cammard wrote:
Уже нашёл сам...

На Мооле? :vic:

_________________


Top
 Profile E-mail  
 
 
PostPosted: 24 Apr 2011 
Персональный статус
Joined: 15 Jul 2008
Posts: 340
Age: 10
Name: Алексей
Я угадаю, на Рокхарде.


Top
 Profile  
 
 
PostPosted: 24 Apr 2011 
Персональный статус
Joined: 02 Apr 2010
Posts: 223
Name: Андрей
debo6 wrote:
Я угадаю, на Рокхарде.


Дык и гадать нечего, там мой коммент имеется... :pardon:


Top
 Profile  
 
 
PostPosted: 26 Apr 2011 
Персональный статус
User avatar
Joined: 02 Jul 2009
Posts: 293
Name: Александр
Скажите пожалуйста . А там зарегиться реально ? Или только по инвайтам ? Уж очень хочется этот альбом . Да и вообще .... :vic:


Top
 Profile E-mail  
 
 
PostPosted: 26 Apr 2011 
Хиппей (support team)
User avatar
Joined: 30 Jul 2007
Posts: 108945
Lоcаtion: Киев (Kyiv, UA)
Age: 45
Name: Andrey
О, у меня как раз там один инвайт осталсо. Сань, почту проверяй :cow:

_________________


Top
 Profile E-mail  
 
 
PostPosted: 27 Apr 2011 
Хиппей (support team)
User avatar
Joined: 30 Jul 2007
Posts: 108945
Lоcаtion: Киев (Kyiv, UA)
Age: 45
Name: Andrey
Хых, я, конечно сплю уже. Но.. а где там тор-файл? :crazy:

http://rockhard-lossless.com/ipb/index. ... -1991-flac

_________________


Top
 Profile E-mail  
 
 
PostPosted: 27 Apr 2011 
Хиппей (support team)
User avatar
Joined: 30 Jul 2007
Posts: 108945
Lоcаtion: Киев (Kyiv, UA)
Age: 45
Name: Andrey
Фуф, едрить, еле нашёл :starz:

Завтра перезалью :pardon:

_________________


Top
 Profile E-mail  
 
 
PostPosted: 27 Apr 2011 
Персональный статус
Joined: 02 Apr 2010
Posts: 223
Name: Андрей
Brighton Rock - Love Machine 1991:

http://ifolder.ru/23205000


Top
 Profile  
 
 
PostPosted: 27 Apr 2011 
Хиппей (support team)
User avatar
Joined: 30 Jul 2007
Posts: 108945
Lоcаtion: Киев (Kyiv, UA)
Age: 45
Name: Andrey
Brighton Rock - 1991 - Love Machine [flac tracks]

Attachment:
front.jpg
front.jpg [ 223.61 KiB | Viewed 95 times ]

Attachment:
back.jpg
back.jpg [ 455.15 KiB | Viewed 100 times ]


MultiUp l Narod


log
CUERipper v2.1.0 Copyright (C) 2008-10 Gregory S. Chudov

EAC extraction logfile from 22. April 2011, 14:46

Brighton Rock / Love Machine

Used drive : HL-DT-ST DVD-RAM GSA-E60N Adapter: 1 ID: 0

Read mode : Secure
Utilize accurate stream : Yes
Defeat audio cache : Yes
Make use of C2 pointers : No

Read offset correction : 102
Overread into Lead-In and Lead-Out : No
Fill up missing offset samples with silence : Yes
Delete leading and trailing silent blocks : No
Null samples used in CRC calculations : Yes
Used interface : Native Win32 interface for Win NT & 2000
Gap handling : Not detected, thus appended to previous track

Used output format : Internal WAV Routines
Sample format : 44.100 Hz; 16 Bit; Stereo


TOC of the extracted CD

Track | Start | Length | Start sector | End sector
---------------------------------------------------------
1 | 0:00.00 | 3:55.00 | 0 | 17624
2 | 3:55.00 | 4:08.27 | 17625 | 36251
3 | 8:03.27 | 5:00.73 | 36252 | 58824
4 | 13:04.25 | 4:19.27 | 58825 | 78276
5 | 17:23.52 | 4:13.23 | 78277 | 97274
6 | 21:37.00 | 5:29.67 | 97275 | 122016
7 | 27:06.67 | 4:32.05 | 122017 | 142421
8 | 31:38.72 | 3:40.15 | 142422 | 158936
9 | 35:19.12 | 4:33.40 | 158937 | 179451
10 | 39:52.52 | 3:08.08 | 179452 | 193559
11 | 43:00.60 | 5:56.50 | 193560 | 220309


Track 1

Filename C:\Users\steven\Desktop\CUETools_2.1.1\CUETools_2.1.1\Brighton Rock - Love Machine\01. Bulletproof.wav

Pre-gap length 0:00:02.00

Peak level 91.8 %
Track quality 100.0 %
Test CRC A0457D00
Copy CRC A0457D00
Track not present in AccurateRip database
Copy OK

Track 2

Filename C:\Users\steven\Desktop\CUETools_2.1.1\CUETools_2.1.1\Brighton Rock - Love Machine\02. Hollywood Shuffle.wav

Peak level 85.6 %
Track quality 100.0 %
Test CRC 4A58FC7E
Copy CRC 4A58FC7E
Track not present in AccurateRip database
Copy OK

Track 3

Filename C:\Users\steven\Desktop\CUETools_2.1.1\CUETools_2.1.1\Brighton Rock - Love Machine\03. Love Machine.wav

Peak level 92.4 %
Track quality 100.0 %
Test CRC B5A6C7B2
Copy CRC B5A6C7B2
Track not present in AccurateRip database
Copy OK

Track 4

Filename C:\Users\steven\Desktop\CUETools_2.1.1\CUETools_2.1.1\Brighton Rock - Love Machine\04. Still The One.wav

Peak level 100.0 %
Track quality 100.0 %
Test CRC 9B8ACD28
Copy CRC 9B8ACD28
Track not present in AccurateRip database
Copy OK

Track 5

Filename C:\Users\steven\Desktop\CUETools_2.1.1\CUETools_2.1.1\Brighton Rock - Love Machine\05. Mr. Mistreater.wav

Peak level 89.8 %
Track quality 100.0 %
Test CRC CE4054B4
Copy CRC CE4054B4
Track not present in AccurateRip database
Copy OK

Track 6

Filename C:\Users\steven\Desktop\CUETools_2.1.1\CUETools_2.1.1\Brighton Rock - Love Machine\06. Nightstalker.wav

Peak level 94.2 %
Track quality 100.0 %
Test CRC DAE4FD3D
Copy CRC DAE4FD3D
Track not present in AccurateRip database
Copy OK

Track 7

Filename C:\Users\steven\Desktop\CUETools_2.1.1\CUETools_2.1.1\Brighton Rock - Love Machine\07. Love In A Bottle.wav

Peak level 94.3 %
Track quality 100.0 %
Test CRC 92324107
Copy CRC 92324107
Track not present in AccurateRip database
Copy OK

Track 8

Filename C:\Users\steven\Desktop\CUETools_2.1.1\CUETools_2.1.1\Brighton Rock - Love Machine\08. Nothin' To Loose.wav

Peak level 90.2 %
Track quality 100.0 %
Test CRC FBC00A98
Copy CRC FBC00A98
Track not present in AccurateRip database
Copy OK

Track 9

Filename C:\Users\steven\Desktop\CUETools_2.1.1\CUETools_2.1.1\Brighton Rock - Love Machine\09. Heart Of Steel.wav

Peak level 76.6 %
Track quality 100.0 %
Test CRC F1A0B397
Copy CRC F1A0B397
Track not present in AccurateRip database
Copy OK

Track 10

Filename C:\Users\steven\Desktop\CUETools_2.1.1\CUETools_2.1.1\Brighton Rock - Love Machine\10. Cocaine.wav

Peak level 94.0 %
Track quality 100.0 %
Test CRC 417DA2ED
Copy CRC 417DA2ED
Track not present in AccurateRip database
Copy OK

Track 11

Filename C:\Users\steven\Desktop\CUETools_2.1.1\CUETools_2.1.1\Brighton Rock - Love Machine\11. Magic Is Back.wav

Peak level 81.6 %
Track quality 100.0 %
Test CRC A627494A
Copy CRC A627494A
Track not present in AccurateRip database
Copy OK


None of the tracks are present in the AccurateRip database

No errors occurred

End of status report


cue
REM ACCURATERIPID 0013e978-00ad1f06-970b790b
REM DISCID 970B790B
REM COMMENT "ExactAudioCopy v0.99pb4"
REM DATE 1991
REM GENRE "Hard Rock"
PERFORMER "Brighton Rock"
TITLE "Love Machine"
FILE "01. Bulletproof.flac" WAVE
TRACK 01 AUDIO
TITLE "Bulletproof"
PERFORMER "Brighton Rock"
INDEX 01 00:00:00
FILE "02. Hollywood Shuffle.flac" WAVE
TRACK 02 AUDIO
TITLE "Hollywood Shuffle"
PERFORMER "Brighton Rock"
INDEX 01 00:00:00
FILE "03. Love Machine.flac" WAVE
TRACK 03 AUDIO
TITLE "Love Machine"
PERFORMER "Brighton Rock"
INDEX 01 00:00:00
FILE "04. Still The One.flac" WAVE
TRACK 04 AUDIO
TITLE "Still The One"
PERFORMER "Brighton Rock"
INDEX 01 00:00:00
FILE "05. Mr. Mistreater.flac" WAVE
TRACK 05 AUDIO
TITLE "Mr. Mistreater"
PERFORMER "Brighton Rock"
INDEX 01 00:00:00
FILE "06. Nightstalker.flac" WAVE
TRACK 06 AUDIO
TITLE "Nightstalker"
PERFORMER "Brighton Rock"
INDEX 01 00:00:00
FILE "07. Love In A Bottle.flac" WAVE
TRACK 07 AUDIO
TITLE "Love In A Bottle"
PERFORMER "Brighton Rock"
INDEX 01 00:00:00
FILE "08. Nothin' To Loose.flac" WAVE
TRACK 08 AUDIO
TITLE "Nothin' To Loose"
PERFORMER "Brighton Rock"
INDEX 01 00:00:00
FILE "09. Heart Of Steel.flac" WAVE
TRACK 09 AUDIO
TITLE "Heart Of Steel"
PERFORMER "Brighton Rock"
INDEX 01 00:00:00
FILE "10. Cocaine.flac" WAVE
TRACK 10 AUDIO
TITLE "Cocaine"
PERFORMER "Brighton Rock"
INDEX 01 00:00:00
FILE "11. Magic Is Back.flac" WAVE
TRACK 11 AUDIO
TITLE "Magic Is Back"
PERFORMER "Brighton Rock"
INDEX 01 00:00:00


Downloaded from Rockhard Lossless.com :thanx:

_________________


Top
 Profile E-mail  
 
 
PostPosted: 27 Apr 2011 
Персональный статус
User avatar
Joined: 02 Jul 2009
Posts: 293
Name: Александр
Спасибо большое други !!!!!!! :thanx: :thanx: :thanx: :thanx: :thanx: :thanx: :thanx:


Top
 Profile E-mail  
 
 
PostPosted: 27 Apr 2011 
Хиппей (support team)
User avatar
Joined: 30 Jul 2007
Posts: 108945
Lоcаtion: Киев (Kyiv, UA)
Age: 45
Name: Andrey
Инвайт дошел? :vic:

_________________


Top
 Profile E-mail  
 
 
PostPosted: 27 Apr 2011 
Хиппей (support team)
User avatar
Joined: 30 Jul 2007
Posts: 108945
Lоcаtion: Киев (Kyiv, UA)
Age: 45
Name: Andrey
Scatterbrain wrote:
Brighton Rock - 1991 - Love Machine

Не без удовольствия третий час гоняю по круговой альбом - лепотища хандыхэвовая. Вообще без минусов работа :true:

10/10

_________________


Top
 Profile E-mail  
 
 
PostPosted: 27 Apr 2011 
Персональный статус
Joined: 02 Apr 2010
Posts: 223
Name: Андрей
Scatterbrain wrote:
Scatterbrain wrote:
Brighton Rock - 1991 - Love Machine

Не без удовольствия третий час гоняю по круговой альбом - лепотища хандыхэвовая. Вообще без минусов работа :true:

10/10


Ну не зря же я его искал! - я плохого не слушаю... :crazy: :oops: А альбом действительно супер классный, ну и лучший у этой банды...


Top
 Profile  
 
 
PostPosted: 27 Apr 2011 
Хиппей (support team)
User avatar
Joined: 30 Jul 2007
Posts: 108945
Lоcаtion: Киев (Kyiv, UA)
Age: 45
Name: Andrey
Странное дело - раз лучший, то чего его нигде почти нету? :vic:

_________________


Top
 Profile E-mail  
 
 
PostPosted: 27 Apr 2011 
Персональный статус
Joined: 02 Apr 2010
Posts: 223
Name: Андрей
Scatterbrain wrote:
Странное дело - раз лучший, то чего его нигде почти нету? :vic:


Группа потому что не шибко известная, собственно таких вот хороших, но по разным причинам малоизвестных банд очень много, и как правило найти их в лосях весьма не просто...


Top
 Profile  
 
 
PostPosted: 27 Apr 2011 
Прокъмитолист
User avatar
Joined: 12 Aug 2007
Posts: 6514
Lоcаtion: Санктъ-Петербуркъ
Age: 51
Name: Олекъ
Scatterbrain wrote:
чего его нигде почти нету?

дык вон даже на этом "подземельном" форуме есть :crazy:

_________________
прокъметол - это музыко, от которово есть прок (ы)


Top
 Profile  
 
 
PostPosted: 30 Apr 2011 
Персональный статус
User avatar
Joined: 02 Jul 2009
Posts: 293
Name: Александр
Scatterbrain wrote:
Инвайт дошел? :vic:


Андрей . Извини пожалуйста что так долго с ответом ( туплю по страшной силе в последнее время ) . Инвайт дошел . Спасибо тебе большое !!!!!!! :thanx: :thanx: :thanx:


Top
 Profile E-mail  
 
 
PostPosted: 30 Apr 2011 
Хиппей (support team)
User avatar
Joined: 30 Jul 2007
Posts: 108945
Lоcаtion: Киев (Kyiv, UA)
Age: 45
Name: Andrey
spiralarch wrote:
дык вон даже на этом "подземельном" форуме есть :crazy:

Дык, уже не только здесь, хоть и рип потрэковый :crazy: :true:

_________________


Top
 Profile E-mail  
 
Display posts from previous:  Sort by  
Post new topic Reply to topic  [ 21 posts ]  Go to page 1, 2  Next

All times are UTC + 3 hours


Who is online

Users browsing this forum: No registered users and 2 guests


You cannot post new topics in this forum
You cannot reply to topics in this forum
You cannot edit your posts in this forum
You cannot delete your posts in this forum
You cannot post attachments in this forum

Search for:
Яндекс.Метрика
Powered by phpBB © 2000, 2002, 2005, 2007 phpBB Group