\m/ 80's metal \m/

Информационно-аналитический форум "80 см пыли" (In Search We Trust) "У нас никто никуда не спешит"
Me For You - http://me-4u.com
It is currently 11 Dec 2018

All times are UTC + 3 hours

Spoiler
Chat - temporary registration for foreign users (please leave your application here)







Post new topic Reply to topic  [ 10 posts ] 
Author Message
 
PostPosted: 02 May 2010 
Персональный статус
User avatar
Joined: 02 Jul 2009
Posts: 293
Name: Александр
Может у кого есть лось

Blackstone -

Blackstone

Category: Hard Rock

Year: 19??

Personnel
Marc Lafrance vocals
Paul Dean guitars
Brent Knudson guitars
Mick Dalla-Vee bass
Gary Grace drums


Tracks
1. Chill
2. Kiss the Fire
3. Act Out Your Fantasy
4. Trouble in Paradise
5. Runaway
6. Been There, Done That
7. Livin' to Ride
8. Land of Denial
9. World Comes Tumbling Down
10. Schizophrenic
11. Blame It on the Night


http://www.heavyharmonies.com/cgi-bin/g ... Blackstone


Top
 Profile E-mail  
 
 
PostPosted: 24 May 2011 
Персональный статус
User avatar
Joined: 02 Jul 2009
Posts: 293
Name: Александр
Очень ищу Blackstone
Album title: Blackstone
Country: Canada
Year: 1997
Genre: Hard Rock
Label: Escape Music ESM021

Bandmembers :

Brent Knudsen Guitars, Backing Vocals
Gary Grace Drums
Marc LaFrance Vocals
Mick Dalla Vee Bass, Backing Vocals
Paul Dean Guitars, Backing Vocals

Tracks
1. Chill
2. Kiss the Fire
3. Act Out Your Fantasy
4. Trouble in Paradise
5. Runaway
6. Been There, Done That
7. Livin' to Ride
8. Land of Denial
9. World Comes Tumbling Down
10. Schizophrenic
11. Blame It on the Night


http://www.aordreamer.com/index.php?pag ... 1&letter=B

:dash: :dash: :dash:


Top
 Profile E-mail  
 
 
PostPosted: 04 Jun 2011 
хард н хэвщик (support team)
User avatar
Joined: 02 Jun 2008
Posts: 16880
Lоcаtion: Н.Новгород
Age: 31
Name: Артем
Deris wrote:
Blackstone - Blackstone - 1997

Blackstone 1997 Blackstone.ape
Blackstone 1997 Blackstone.cue


Top
 Profile  
 
 
PostPosted: 07 Jun 2011 
Хиппей (support team)
User avatar
Joined: 30 Jul 2007
Posts: 108811
Lоcаtion: Киев (Kyiv, UA)
Age: 45
Name: Andrey
McKagan wrote:
Deris wrote:
Blackstone - Blackstone - 1997

Blackstone 1997 Blackstone.ape
Blackstone 1997 Blackstone.cue
:thanx:
mirror: MultiUp l Narod

cue
REM DISCID 930C7C0B
REM COMMENT "ExactAudioCopy v0.95b2"
PERFORMER "Blackstone"
TITLE "Blackstone"
FILE "Blackstone 1997 Blackstone.wav" WAVE
TRACK 01 AUDIO
TITLE "Chill"
PERFORMER "Blackstone"
INDEX 01 00:00:00
TRACK 02 AUDIO
TITLE "Kiss The Fire"
PERFORMER "Blackstone"
INDEX 01 05:17:67
TRACK 03 AUDIO
TITLE "Act Out Your Fantasy"
PERFORMER "Blackstone"
INDEX 01 10:55:33
TRACK 04 AUDIO
TITLE "Trouble In Paradise"
PERFORMER "Blackstone"
INDEX 01 15:08:15
TRACK 05 AUDIO
TITLE "Runaway"
PERFORMER "Blackstone"
INDEX 01 20:31:67
TRACK 06 AUDIO
TITLE "Been There, Done That"
PERFORMER "Blackstone"
INDEX 01 26:01:63
TRACK 07 AUDIO
TITLE "Livin' To Ride"
PERFORMER "Blackstone"
INDEX 01 30:09:37
TRACK 08 AUDIO
TITLE "Land Of Denial"
PERFORMER "Blackstone"
INDEX 01 34:53:63
TRACK 09 AUDIO
TITLE "World Comes Tumbling Down"
PERFORMER "Blackstone"
INDEX 01 39:13:15
TRACK 10 AUDIO
TITLE "Schizophrenic"
PERFORMER "Blackstone"
INDEX 01 43:27:07
TRACK 11 AUDIO
TITLE "Blame It On The Night"
PERFORMER "Blackstone"
INDEX 01 47:52:45

_________________


Top
 Profile E-mail  
 
 
PostPosted: 06 Jul 2011 
Персональный статус
User avatar
Joined: 02 Jul 2009
Posts: 293
Name: Александр
А этот альбом Артём уже выложил .


Top
 Profile E-mail  
 
 
PostPosted: 16 Jul 2011 
Работнечег
User avatar
Joined: 28 Aug 2007
Posts: 5598
Lоcаtion: г. Москва
Age: 29
Name: Дима
ага, ссылочка тут
viewtopic.php?f=25&t=9739&hilit=Blackstone&start=20
Запрос закрываем.


Top
 Profile E-mail  
 
 
PostPosted: 23 Oct 2011 
Хиппей (support team)
User avatar
Joined: 30 Jul 2007
Posts: 108811
Lоcаtion: Киев (Kyiv, UA)
Age: 45
Name: Andrey
Сань, и где картинка в сообщении, например?

_________________


Top
 Profile E-mail  
 
 
PostPosted: 23 Oct 2011 
Хиппей (support team)
User avatar
Joined: 30 Jul 2007
Posts: 108811
Lоcаtion: Киев (Kyiv, UA)
Age: 45
Name: Andrey
Мдя...
Лосик то давно найден :oops:

:arrow: viewtopic.php?f=205&t=9728 :losik:

_________________


Top
 Profile E-mail  
 
 
PostPosted: 02 Jan 2012 
Хиппей (support team)
User avatar
Joined: 30 Jul 2007
Posts: 108811
Lоcаtion: Киев (Kyiv, UA)
Age: 45
Name: Andrey
И эту тему слепил из трёх других-сиамских :fingal:
Альбом найден, так что пусть всё будет в такой вот кучке постов-близнецов и неряшливо оформлено.

Кстати, обложек случайно не нашли?

Релиз мне понравился. Приятный, профессиональный Hard Rock конца 80-х. Эдакий Nazareth на новый лад :meloman:
Даже не верится, что записан он в конце 90-х :vic:

7/10

_________________


Top
 Profile E-mail  
 
 
PostPosted: 02 Jan 2012 
Хиппей (support team)
User avatar
Joined: 30 Jul 2007
Posts: 108811
Lоcаtion: Киев (Kyiv, UA)
Age: 45
Name: Andrey
Attachment:
front.jpg
front.jpg [ 88.42 KiB | Viewed 719 times ]

Attachment:
back.jpg
back.jpg [ 111.35 KiB | Viewed 710 times ]

_________________


Top
 Profile E-mail  
 
Display posts from previous:  Sort by  
Post new topic Reply to topic  [ 10 posts ] 

All times are UTC + 3 hours


Who is online

Users browsing this forum: No registered users and 2 guests


You cannot post new topics in this forum
You cannot reply to topics in this forum
You cannot edit your posts in this forum
You cannot delete your posts in this forum
You cannot post attachments in this forum

Search for:
Яндекс.Метрика
Powered by phpBB © 2000, 2002, 2005, 2007 phpBB Group