\m/ 80's metal \m/

Информационно-аналитический форум "80 см пыли" (In Search We Trust) "У нас никто никуда не спешит"
Me For You - http://me-4u.com
It is currently 24 Oct 2018

All times are UTC + 3 hours

Spoiler
Chat - temporary registration for foreign users (please leave your application here)







Post new topic Reply to topic  [ 8 posts ] 
Author Message
 
PostPosted: 01 May 2010 
metallpaparazzy
User avatar
Joined: 20 Dec 2009
Posts: 674
Lоcаtion: Днепропетровск
Age: 43
Name: Геннадий
Image

Black Symphony - Black Symphony

Full-length, Rising Sun Records
1998

Lineup on this recording:
Mike Pierce - lead vocals
Rick Plester - guitars, keyboards, backing vocals
Jeff Martin - drums, percussion, backing vocals
Rev Jones - bass, backing vocals
Robert Vasicek - keyboards

Additional musician:
Robert Bennett - cello, bass, backing vocals

1. Never 03:50
2. Breathe 04:12
3. End of Your Life 03:32
4. Are You Crying 03:51
5. The Poor / The Edge 06:42
6. The Wind 03:26
7. Listen 04:03
8. Period of Mourning 02:36
9. The Black Symphony 11:50

Total playing time 44:02
log
Отчёт EAC об извлечении, выполненном 1. мая 2010, 13:19 для диска:
the Black Symphony / Black Symphony

Дисковод: Optiarc DVD RW AD-7170S Adapter: 1 ID: 1
Режим чтения: Достоверный (C2: нет, Точный поток: да, Отключение кэша: да)
Коррекция смещения при чтении: 48
Способность читать области Lead-in и Lead-out : Нет

Выходной формат: Внутренние WAV-операции
44.100 Гц; 16 бит; стерео

Другие параметры:
Заполнение пропущенных сэмплов тишиной : Да
Удаление блоков с тишиной в начале и конце : Нет
Установленный внешний ASPI-интерфейс


Характеристики диапазона извлечения и сообщения об ошибках
Выбранный диапазон
Имя файла C:\Documents and Settings\Admin\Рабочий стол\ЛОСИНАЯ ФЕРМА\МОИ ЛОСИ\BLACK SYMPHONY\1998\the Black Symphony - Black Symphony.wav

Пиковый уровень 96.6 %
Качество диапазона 99.9 %
CRC 9FF17669
Копирование... OK

Ошибок не произошло

Конец отчёта

cue
REM GENRE Metal
REM DATE 1998
REM DISCID 850A5209
REM COMMENT "ExactAudioCopy v0.95b4"
PERFORMER "the Black Symphony"
TITLE "Black Symphony"
FILE "the Black Symphony - Black Symphony.wav" WAVE
TRACK 01 AUDIO
TITLE "Never "
PERFORMER "the Black Symphony"
FLAGS DCP
INDEX 01 00:00:00
TRACK 02 AUDIO
TITLE "Breathe"
PERFORMER "the Black Symphony"
FLAGS DCP
INDEX 00 03:48:72
INDEX 01 03:50:42
TRACK 03 AUDIO
TITLE "End of Your Life"
PERFORMER "the Black Symphony"
FLAGS DCP
INDEX 00 08:00:53
INDEX 01 08:02:23
TRACK 04 AUDIO
TITLE "Are You Crying"
PERFORMER "the Black Symphony"
FLAGS DCP
INDEX 00 11:32:59
INDEX 01 11:34:29
TRACK 05 AUDIO
TITLE "The Poor / The Edge"
PERFORMER "the Black Symphony"
FLAGS DCP
INDEX 00 15:23:64
INDEX 01 15:25:34
TRACK 06 AUDIO
TITLE "The Wind"
PERFORMER "the Black Symphony"
FLAGS DCP
INDEX 00 22:05:48
INDEX 01 22:07:18
TRACK 07 AUDIO
TITLE "Listen"
PERFORMER "the Black Symphony"
FLAGS DCP
INDEX 00 25:32:09
INDEX 01 25:33:54
TRACK 08 AUDIO
TITLE "Period of Mourning"
PERFORMER "the Black Symphony"
FLAGS DCP
INDEX 00 29:35:19
INDEX 01 29:36:64
TRACK 09 AUDIO
TITLE "The Black Symphony"
PERFORMER "the Black Symphony"
FLAGS DCP
INDEX 00 32:11:17
INDEX 01 32:12:62


http://www.multiupload.com/PB3GLHGJDS (flac).rar (330.34 MB)
http://www.multiupload.com/GST9H0SK33 [320].rar (103.94 MB)

Рип мой, лицензия (СД-МАХ).
Супер альбом! :true: в меру проговый -- никаких лишних спортивных запилов и спотыкающихся ритмов, грамотные и уместные обильные клавишные, отличные вокальные партии... :meloman: а когда я узнал, что мозг этой банды (гитарист) вообще-то профессиональный хоккеист, в очередной раз убедился: если человек талантлив -- он талантлив во всем! ;)


Top
 Profile E-mail  
 
 
PostPosted: 01 May 2010 
Прокъмитолист
User avatar
Joined: 12 Aug 2007
Posts: 6490
Lоcаtion: Санктъ-Петербуркъ
Age: 51
Name: Олекъ
в свое время этот альбом произвел неизгладимое впечатление. шикарная вещь :true:
а вот второй уже не настолько зацепил...

_________________
прокъметол - это музыко, от которово есть прок (ы)


Top
 Profile  
 
 
PostPosted: 01 May 2010 
metallpaparazzy
User avatar
Joined: 20 Dec 2009
Posts: 674
Lоcаtion: Днепропетровск
Age: 43
Name: Геннадий
аналогично! хотя второй тоже имею на сд... какойто подгружающий он. :vic: недавно надыбал 2007 "No. 3: Sowing the Seeds of Destruction" -- там вообще шо-то с альтернативой помешано... :nea: для ознакомления бы найти 2007 (2) "Black Symphony No 4"...
spiralarch, не в курсе, чавой там?


Top
 Profile E-mail  
 
 
PostPosted: 01 May 2010 
Power Metal Maniac
User avatar
Joined: 09 Aug 2008
Posts: 6317
Lоcаtion: Москва
Age: 40
Name: Егор
а мне в свое время совсем не покатил :pardon:

_________________
Long Live Metal!


Top
 Profile  
 
 
PostPosted: 01 May 2010 
Прокъмитолист
User avatar
Joined: 12 Aug 2007
Posts: 6490
Lоcаtion: Санктъ-Петербуркъ
Age: 51
Name: Олекъ
metallroll wrote:
не в курсе, чавой там?

неа. у меня тоже только первые два на лицухе :pardon:

_________________
прокъметол - это музыко, от которово есть прок (ы)


Top
 Profile  
 
 
PostPosted: 01 May 2010 
Труъ
User avatar
Joined: 25 Aug 2007
Posts: 191
Lоcаtion: Курск
Age: 42
Name: Максим Жданов
кстати, видел на торенте номер 4. здесь: http://rutracker.org/forum/viewtopic.php?t=2613923

_________________
Сюда ходи:
http://applepieband.net а также vkontakte.ru/club10721684
http://agnostdei.ru и естессно vkontakte.ru/club10695521


Top
 Profile  
 
 
PostPosted: 01 May 2010 
metallpaparazzy
User avatar
Joined: 20 Dec 2009
Posts: 674
Lоcаtion: Днепропетровск
Age: 43
Name: Геннадий
BiggMaxx спасибки, уже слухаю... пока из 4 телег одна вроде ниче. как-то нудновато, что-ли :vic: надо, наверное не один раз слухать...


Top
 Profile E-mail  
 
 
PostPosted: 05 May 2010 
Труъ
User avatar
Joined: 25 Aug 2007
Posts: 191
Lоcаtion: Курск
Age: 42
Name: Максим Жданов
Ды я сам еще не слушал, только скачал:)

_________________
Сюда ходи:
http://applepieband.net а также vkontakte.ru/club10721684
http://agnostdei.ru и естессно vkontakte.ru/club10695521


Top
 Profile  
 
Display posts from previous:  Sort by  
Post new topic Reply to topic  [ 8 posts ] 

All times are UTC + 3 hours


Who is online

Users browsing this forum: No registered users and 1 guest


You cannot post new topics in this forum
You cannot reply to topics in this forum
You cannot edit your posts in this forum
You cannot delete your posts in this forum
You cannot post attachments in this forum

Search for:
Яндекс.Метрика
Powered by phpBB © 2000, 2002, 2005, 2007 phpBB Group