\m/ 80's metal \m/

Информационно-аналитический форум "80 см пыли" (In Search We Trust) "У нас никто никуда не спешит"
Me For You - http://me-4u.com
It is currently 15 Dec 2018

All times are UTC + 3 hours

Spoiler
Chat - temporary registration for foreign users (please leave your application here)







Post new topic Reply to topic  [ 28 posts ]  Go to page Previous  1, 2
Author Message
 
PostPosted: 07 Apr 2010 
ыыыы
User avatar
Joined: 17 May 2009
Posts: 952
Lоcаtion: Пушкино, МО
Age: 40
Name: Дмитрий
Image


Жанр: Speed Metal/Heavy Metal
Происхождение исполнителя: Германия
Год издания: 1992
Год издания данного носителя: 1992
Страна-производитель носителя: Япония
Аудио кодек: FLAC
Тип рипа: image+.cue
Битрейт аудио: lossless
Продолжительность: 55:40
Рип: Собственный
Лейбл: VIRGIN SCHALLPLATTEN/VICTOR
Каталоговый номер: VICP-5178
Матрица: VICP-5178-1-A1F 12 V (JVC)

Треклист:
1. Time What Is Time 05:46
2. Journey Through the Dark 04:48
3. Black Chamber 00:58
4. Theatre of Pain 04:17
5. The Quest for Tanelorn 05:59
6. Ashes to Ashes 06:01
7. The Bard's Song 07:04
8. The Piper's Calling 00:59
9. Somewhere Far Beyond 07:32
11. Spread Your Wings (Queen Cover) 04:15
12. Trial By Fire (Satan Cover) 03:44
13. Theatre of Pain (Classic Version) 04:17

"Куй"
REM GENRE "Heavy Metal"
REM DATE 1992
REM DISCID A20D0C0C
REM COMMENT "ExactAudioCopy v0.99pb5"
PERFORMER "Blind Guardian"
TITLE "Somewhere Far Beyond [VICP-5178]"
FILE "Blind Guardian - Somewhere Far Beyond [VICP-5178].flac" WAVE
TRACK 01 AUDIO
TITLE "Time What Is Time"
PERFORMER "Blind Guardian"
INDEX 00 00:00:00
INDEX 01 00:00:37
TRACK 02 AUDIO
TITLE "Journey Through The Dark"
PERFORMER "Blind Guardian"
INDEX 00 05:45:33
INDEX 01 05:46:32
TRACK 03 AUDIO
TITLE "Black Chamber"
PERFORMER "Blind Guardian"
INDEX 00 10:33:33
INDEX 01 10:34:37
TRACK 04 AUDIO
TITLE "Theatre Of Pain"
PERFORMER "Blind Guardian"
INDEX 00 11:32:13
INDEX 01 11:32:62
TRACK 05 AUDIO
TITLE "The Quest For Tanelorn"
PERFORMER "Blind Guardian"
INDEX 00 15:48:73
INDEX 01 15:50:00
TRACK 06 AUDIO
TITLE "Ashes To Ashes"
PERFORMER "Blind Guardian"
INDEX 00 21:44:21
INDEX 01 21:48:60
TRACK 07 AUDIO
TITLE "The Bard's Song"
PERFORMER "Blind Guardian"
INDEX 00 27:48:63
INDEX 01 27:49:42
TRACK 08 AUDIO
TITLE "The Piper's Calling"
PERFORMER "Blind Guardian"
INDEX 00 34:52:53
INDEX 01 34:53:40
TRACK 09 AUDIO
TITLE "Somewhere Far Beyond"
PERFORMER "Blind Guardian"
INDEX 01 35:52:10
TRACK 10 AUDIO
TITLE "Spread Your Wings"
PERFORMER "Blind Guardian"
INDEX 00 43:21:46
INDEX 01 43:24:10
TRACK 11 AUDIO
TITLE "Trial By Fire"
PERFORMER "Blind Guardian"
INDEX 00 47:38:33
INDEX 01 47:39:20
TRACK 12 AUDIO
TITLE "Theatre Of Pain (Classic Version)"
PERFORMER "Blind Guardian"
INDEX 00 51:23:46
INDEX 01 51:23:57


"Лог"
Exact Audio Copy V0.99 prebeta 5 from 4. May 2009

EAC extraction logfile from 7. April 2010, 13:20

Blind Guardian / Somewhere Far Beyond [VICP-5178]

Used drive : Optiarc DVD RW AD-7200A Adapter: 0 ID: 0

Read mode : Secure
Utilize accurate stream : Yes
Defeat audio cache : Yes
Make use of C2 pointers : No

Read offset correction : 48
Overread into Lead-In and Lead-Out : No
Fill up missing offset samples with silence : Yes
Delete leading and trailing silent blocks : No
Null samples used in CRC calculations : Yes
Used interface : Native Win32 interface for Win NT & 2000

Used output format : User Defined Encoder
Selected bitrate : 128 kBit/s
Quality : High
Add ID3 tag : No
Command line compressor : C:\Program Files\Exact Audio Copy\Flac\flac.exe
Additional command line options : -8 -V -T "artist=%a" -T "title=%t" -T "album=%g" -T "date=%y" -T "tracknumber=%n" -T "genre=%m" -T "comment=EAC 0.9beta4 / FLAC 1.1.0 q6" %s


TOC of the extracted CD

Track | Start | Length | Start sector | End sector
---------------------------------------------------------
1 | 0:00.37 | 5:45.70 | 37 | 25981
2 | 5:46.32 | 4:48.05 | 25982 | 47586
3 | 10:34.37 | 0:58.25 | 47587 | 51961
4 | 11:32.62 | 4:17.13 | 51962 | 71249
5 | 15:50.00 | 5:58.60 | 71250 | 98159
6 | 21:48.60 | 6:00.57 | 98160 | 125216
7 | 27:49.42 | 7:03.73 | 125217 | 157014
8 | 34:53.40 | 0:58.45 | 157015 | 161409
9 | 35:52.10 | 7:32.00 | 161410 | 195309
10 | 43:24.10 | 4:15.10 | 195310 | 214444
11 | 47:39.20 | 3:44.37 | 214445 | 231281
12 | 51:23.57 | 4:16.68 | 231282 | 250549


Range status and errors

Selected range

Filename Y:\Музыка\Blind Guardian\1992 Somewhere Far Beyond\Blind Guardian - Somewhere Far Beyond [VICP-5178].wav

Peak level 81.3 %
Range quality 100.0 %
Copy CRC 9791E794
Copy OK

No errors occurred

End of status report


Состав:
Hansi Kürsch: Vocals, bass
Andre Olbrich: Guitars
Marcus Siepen: Guitars
Thomas Stauch: Drums
Kai Hansen plays guest lead guitar on "The Quest for Tanelorn".

MultiUp l Narod

_________________
Витасу до Даймонда как Алсу до Руссоса | При переразмещении - спрашивать разрешение!!


Top
 Profile  
 
 
PostPosted: 30 Oct 2011 
Power Metal Maniac
User avatar
Joined: 09 Aug 2008
Posts: 6434
Lоcаtion: Москва
Age: 40
Name: Егор
Самое интересное, что с этого альбома мне BG начинает нравится все меньше - первые альбом мне больше по душе. Насчет симфо-павера (любимого мной) - ну тут его в общем нет, если только Theatre of Pain (Classic Version), и то условно.
А вот бард сонги не понимаю, особенно их чрезмерную популярность.

_________________
Long Live Metal!


Top
 Profile  
 
 
PostPosted: 31 Oct 2011 
Хиппей (support team)
User avatar
Joined: 30 Jul 2007
Posts: 108919
Lоcаtion: Киев (Kyiv, UA)
Age: 45
Name: Andrey
EG Power wrote:
Самое интересное, что с этого альбома мне BG начинает нравится все меньше - первые альбомы мне больше по душе

Очень странно :shok:
Прям мой вкус стырил :true:

_________________


Top
 Profile E-mail  
 
 
PostPosted: 31 Oct 2011 
Power Metal Maniac
User avatar
Joined: 09 Aug 2008
Posts: 6434
Lоcаtion: Москва
Age: 40
Name: Егор
Почему-то к BG у меня неоднозначное отношение. Вроде бы по всем параметрам это должна быть мой любимая группа, особенно с 90-х гг, однако нет, прямо парадокс какой-то. Может, несколько раздражает их чрезмерная популярность по сравнению со многими другими группами.

_________________
Long Live Metal!


Top
 Profile  
 
 
PostPosted: 31 Oct 2011 
Я набрал 1000 сообщений!
User avatar
Joined: 25 Dec 2008
Posts: 1545
Age: 43
Name: Павел
EG Power wrote:
первые альбом мне больше по душе

А мне наоборот. Первые 2 альбома - очень сырые и невыразительные, явное подражание Helloween, хотя по современным меркам это, конечно, уже классика спид-метал. С третьего альбома уже появился свой собственный фирменный саунд. Для меня альбомы 90,92,95 - их лучшие творения. Они и вывели их в лидеры европейского пауэр-метал в 90-е. Но вот последующие альбомы меня совсем не обрадовали.


Top
 Profile  
 
 
PostPosted: 31 Oct 2011 
Power Metal Maniac
User avatar
Joined: 09 Aug 2008
Posts: 6434
Lоcаtion: Москва
Age: 40
Name: Егор
То, что подражание Helloween, причем Jericho - мне как раз и нравится. И притом весьма выразительно. И альбом 90-го тоже отличный, вот в таком же духе им следовало играть, без занудства, как дальше. А вот, скажем, Imaginations с какого-то момента стал мне просто противен, почему-то вообще не идет.

_________________
Long Live Metal!


Top
 Profile  
 
 
PostPosted: 31 Oct 2011 
Хиппей (support team)
User avatar
Joined: 30 Jul 2007
Posts: 108919
Lоcаtion: Киев (Kyiv, UA)
Age: 45
Name: Andrey
EG Power wrote:
А вот, скажем, Imaginations с какого-то момента стал мне просто противен, почему-то вообще не идет.

А патамушта сразу после него вывалилась большая куча паверный групп, пытающихся играть нечто подобное :nunu:

_________________


Top
 Profile E-mail  
 
 
PostPosted: 31 Oct 2011 
Power Metal Maniac
User avatar
Joined: 09 Aug 2008
Posts: 6434
Lоcаtion: Москва
Age: 40
Name: Егор
Scatterbrain
неа, наоборот, кучу этих паверных групп я слушаю и чаще всего с удовольствием. А IOTOS - нет, особенно бардизмы достают.
Мне как правило ведь не столь важно, кто играет, главное - стиль, который я люблю.

_________________
Long Live Metal!


Top
 Profile  
 
 
PostPosted: 31 Oct 2011 
труъ антисионист
User avatar
Joined: 01 Aug 2007
Posts: 4541
Lоcаtion: Откуда и большинство из нас
Age: 38
Name: Дядя Вова
EG Power wrote:
То, что подражание Helloween, причем Jericho - мне как раз и нравится. И притом весьма выразительно. И альбом 90-го тоже отличный, вот в таком же духе им следовало играть, без занудства, как дальше. А вот, скажем, Imaginations с какого-то момента стал мне просто противен, почему-то вообще не идет.

А у меня всё с точностью до наоборот. Терпеть не могу сходство с Хеловином на первых альбомах, а этот и следующий заслушал до дыр и на мой взгляд это лучшие альбомы блиндов, да и вообще всего жанра в целом.

_________________
Image
Image


Top
 Profile  
 
Display posts from previous:  Sort by  
Post new topic Reply to topic  [ 28 posts ]  Go to page Previous  1, 2

All times are UTC + 3 hours


Who is online

Users browsing this forum: No registered users and 4 guests


You cannot post new topics in this forum
You cannot reply to topics in this forum
You cannot edit your posts in this forum
You cannot delete your posts in this forum
You cannot post attachments in this forum

Search for:
Яндекс.Метрика
Powered by phpBB © 2000, 2002, 2005, 2007 phpBB Group