\m/ 80's metal \m/

Информационно-аналитический форум "80 см пыли" (In Search We Trust) "У нас никто никуда не спешит"
Me For You - http://me-4u.com
It is currently 17 Dec 2018

All times are UTC + 3 hours

Spoiler
Chat - temporary registration for foreign users (please leave your application here)







Post new topic Reply to topic  [ 2 posts ] 
Author Message
 
PostPosted: 07 Apr 2010 
ыыыы
User avatar
Joined: 17 May 2009
Posts: 952
Lоcаtion: Пушкино, МО
Age: 40
Name: Дмитрий
Image


Жанр: Speed Metal/Heavy Metal
Происхождение исполнителя: Германия
Год издания: 1993
Год издания данного носителя: 1993
Страна-производитель носителя: Япония
Аудио кодек: FLAC
Тип рипа: image+.cue
Битрейт аудио: lossless
Продолжительность: 72:11
Рип: Собственный
Лейбл: VIRGIN SCHALLPLATTEN/VICTOR
Каталоговый номер: VICP-5232
Матрица: VICP-5232-1-1P 12 V (JVC)

Треклист:
1. Inquisition 00:50
2. Banish from Sanctuary 06:13
3. Journey Through the Dark 05:12
4. Traveler in Time 06:33
5. The Quest for Tanelorn 06:03
6. Goodbye My Friend 06:27
7. Time What is Time 06:42
8. Majesty 07:51
9. Valhalla 06:07
10. Welcome to Dying 05:56
11. Lost in the Twilight Hall 07:25
12. Barbara Ann (Beach Boys Cover) 02:59

"Куй"
REM GENRE "Heavy Metal"
REM DATE 1993
REM DISCID AA10EB0D
REM COMMENT "ExactAudioCopy v0.99pb5"
PERFORMER "Blind Guardian"
TITLE "Tokyo Tales [VICP-5232]"
FILE "Blind Guardian - Tokyo Tales [VICP-5232].flac" WAVE
TRACK 01 AUDIO
TITLE "Inquisition"
PERFORMER "Blind Guardian"
INDEX 00 00:00:00
INDEX 01 00:00:37
TRACK 02 AUDIO
TITLE "Banish From Sanctuary"
PERFORMER "Blind Guardian"
INDEX 01 00:50:55
TRACK 03 AUDIO
TITLE "Journey Through The Dark"
PERFORMER "Blind Guardian"
INDEX 01 07:03:57
TRACK 04 AUDIO
TITLE "Traveler In Time"
PERFORMER "Blind Guardian"
INDEX 01 12:15:62
TRACK 05 AUDIO
TITLE "The Quest For Tanelorn"
PERFORMER "Blind Guardian"
INDEX 01 18:49:15
TRACK 06 AUDIO
TITLE "Goodbye My Friend"
PERFORMER "Blind Guardian"
INDEX 01 24:51:60
TRACK 07 AUDIO
TITLE "Time What Is Time"
PERFORMER "Blind Guardian"
INDEX 01 31:18:72
TRACK 08 AUDIO
TITLE "Majesty"
PERFORMER "Blind Guardian"
INDEX 01 38:00:47
TRACK 09 AUDIO
TITLE "Valhalla"
PERFORMER "Blind Guardian"
INDEX 00 45:47:23
INDEX 01 45:52:07
TRACK 10 AUDIO
TITLE "Welcome To Dying"
PERFORMER "Blind Guardian"
INDEX 01 51:59:20
TRACK 11 AUDIO
TITLE "Lord Of The Rings"
PERFORMER "Blind Guardian"
INDEX 01 57:55:17
TRACK 12 AUDIO
TITLE "Lost In The Twilight Hall"
PERFORMER "Blind Guardian"
INDEX 01 61:47:30
TRACK 13 AUDIO
TITLE "Barbara Ann"
PERFORMER "Blind Guardian"
INDEX 01 69:12:52


"Лог"
Exact Audio Copy V0.99 prebeta 5 from 4. May 2009

EAC extraction logfile from 7. April 2010, 12:52

Blind Guardian / Tokyo Tales [VICP-5232]

Used drive : Optiarc DVD RW AD-7200A Adapter: 0 ID: 0

Read mode : Secure
Utilize accurate stream : Yes
Defeat audio cache : Yes
Make use of C2 pointers : No

Read offset correction : 48
Overread into Lead-In and Lead-Out : No
Fill up missing offset samples with silence : Yes
Delete leading and trailing silent blocks : No
Null samples used in CRC calculations : Yes
Used interface : Native Win32 interface for Win NT & 2000

Used output format : User Defined Encoder
Selected bitrate : 128 kBit/s
Quality : High
Add ID3 tag : No
Command line compressor : C:\Program Files\Exact Audio Copy\Flac\flac.exe
Additional command line options : -8 -V -T "artist=%a" -T "title=%t" -T "album=%g" -T "date=%y" -T "tracknumber=%n" -T "genre=%m" -T "comment=EAC 0.9beta4 / FLAC 1.1.0 q6" %s


TOC of the extracted CD

Track | Start | Length | Start sector | End sector
---------------------------------------------------------
1 | 0:00.37 | 0:50.18 | 37 | 3804
2 | 0:50.55 | 6:13.02 | 3805 | 31781
3 | 7:03.57 | 5:12.05 | 31782 | 55186
4 | 12:15.62 | 6:33.28 | 55187 | 84689
5 | 18:49.15 | 6:02.45 | 84690 | 111884
6 | 24:51.60 | 6:27.12 | 111885 | 140921
7 | 31:18.72 | 6:41.50 | 140922 | 171046
8 | 38:00.47 | 7:51.35 | 171047 | 206406
9 | 45:52.07 | 6:07.13 | 206407 | 233944
10 | 51:59.20 | 5:55.72 | 233945 | 260641
11 | 57:55.17 | 3:52.13 | 260642 | 278054
12 | 61:47.30 | 7:25.22 | 278055 | 311451
13 | 69:12.52 | 2:58.58 | 311452 | 324859


Range status and errors

Selected range

Filename Y:\Музыка\Blind Guardian\1993 Tokyo Tales\Blind Guardian - Tokyo Tales [VICP-5232].wav

Peak level 100.0 %
Range quality 100.0 %
Copy CRC 2D5A497E
Copy OK

No errors occurred

End of status report


Состав:
Hansi Kürsch: Vocals, bass
Andre Olbrich: Guitars
Marcus Siepen: Guitars
Thomas Stauch: Drums
Marc Zee: Keyboards & backing vocals (Guest)

Народ

_________________
Витасу до Даймонда как Алсу до Руссоса | При переразмещении - спрашивать разрешение!!


Top
 Profile  
 
 
PostPosted: 07 Apr 2010 
HAMMER
User avatar
Joined: 16 May 2009
Posts: 5459
Lоcаtion: Тверь
Age: 46
Name: Александр
:thanx:


Top
 Profile E-mail  
 
Display posts from previous:  Sort by  
Post new topic Reply to topic  [ 2 posts ] 

All times are UTC + 3 hours


Who is online

Users browsing this forum: No registered users and 6 guests


You cannot post new topics in this forum
You cannot reply to topics in this forum
You cannot edit your posts in this forum
You cannot delete your posts in this forum
You cannot post attachments in this forum

Search for:
Яндекс.Метрика
Powered by phpBB © 2000, 2002, 2005, 2007 phpBB Group