\m/ 80's metal \m/

Информационно-аналитический форум "80 см пыли" (In Search We Trust) "У нас никто никуда не спешит"
Me For You - http://me-4u.com
It is currently 12 Dec 2018

All times are UTC + 3 hours

Spoiler
Chat - temporary registration for foreign users (please leave your application here)







Post new topic Reply to topic  [ 4 posts ] 
Author Message
 
PostPosted: 07 Apr 2010 
ыыыы
User avatar
Joined: 17 May 2009
Posts: 952
Lоcаtion: Пушкино, МО
Age: 40
Name: Дмитрий
Image


Жанр: Speed Metal/Heavy Metal
Происхождение исполнителя: Германия
Год издания: 1990
Год издания данного носителя: 1990
Страна-производитель носителя: Япония
Аудио кодек: FLAC
Тип рипа: image+.cue
Битрейт аудио: lossless
Продолжительность: 44:39
Рип: Собственный
Лейбл: NO REMORSE/VICTOR
Каталоговый номер: VICP-8012
Матрица: VICP-8012-1-A1D 11 V (JVC)

Треклист:
1. Traveler in Time 06:02
2. Welcome to Dying 04:51
3. Weird Dreams 01:22
4. Lord of the Rings 03:18
5. Goodbye My Friend 05:36
6. Lost in the Twilight Hall 06:02
7. Tommyknockers 05:13
8. Altair 4 02:28
9. The Last Candle 06:01
10. Run for the Night (Live) 03:46

"Куй"
REM GENRE "Heavy Metal"
REM DATE 1990
REM DISCID 840A770A
REM COMMENT "ExactAudioCopy v0.99pb5"
PERFORMER "Blind Guardian"
TITLE "Tales From The Twilight World [VICP-8012]"
FILE "Blind Guardian - Tales From The Twilight World [VICP-8012].flac" WAVE
TRACK 01 AUDIO
TITLE "Traveler In Time"
PERFORMER "Blind Guardian"
INDEX 00 00:00:00
INDEX 01 00:00:37
TRACK 02 AUDIO
TITLE "Welcome To Dying"
PERFORMER "Blind Guardian"
INDEX 00 06:01:55
INDEX 01 06:02:15
TRACK 03 AUDIO
TITLE "Weird Dreams (Instrumental)"
PERFORMER "Blind Guardian"
INDEX 00 10:51:35
INDEX 01 10:52:70
TRACK 04 AUDIO
TITLE "Lord Of The Rings"
PERFORMER "Blind Guardian"
INDEX 00 12:13:34
INDEX 01 12:14:47
TRACK 05 AUDIO
TITLE "Goodbye My Friend"
PERFORMER "Blind Guardian"
INDEX 00 15:31:19
INDEX 01 15:32:52
TRACK 06 AUDIO
TITLE "Lost In The Twilight Hall"
PERFORMER "Blind Guardian"
INDEX 00 21:07:23
INDEX 01 21:08:55
TRACK 07 AUDIO
TITLE "Tommyknockers"
PERFORMER "Blind Guardian"
INDEX 00 27:09:62
INDEX 01 27:10:30
TRACK 08 AUDIO
TITLE "Altair 4"
PERFORMER "Blind Guardian"
INDEX 00 32:22:58
INDEX 01 32:23:25
TRACK 09 AUDIO
TITLE "The Last Candle"
PERFORMER "Blind Guardian"
INDEX 01 34:51:17
TRACK 10 AUDIO
TITLE "Run For The Night (Live)"
PERFORMER "Blind Guardian"
INDEX 00 40:52:22
INDEX 01 40:52:45


"Лог"
Exact Audio Copy V0.99 prebeta 5 from 4. May 2009

EAC extraction logfile from 7. April 2010, 12:30

Blind Guardian / Tales From The Twilight World [VICP-8012]

Used drive : Optiarc DVD RW AD-7200A Adapter: 0 ID: 0

Read mode : Secure
Utilize accurate stream : Yes
Defeat audio cache : Yes
Make use of C2 pointers : No

Read offset correction : 48
Overread into Lead-In and Lead-Out : No
Fill up missing offset samples with silence : Yes
Delete leading and trailing silent blocks : No
Null samples used in CRC calculations : Yes
Used interface : Native Win32 interface for Win NT & 2000

Used output format : User Defined Encoder
Selected bitrate : 128 kBit/s
Quality : High
Add ID3 tag : No
Command line compressor : C:\Program Files\Exact Audio Copy\Flac\flac.exe
Additional command line options : -8 -V -T "artist=%a" -T "title=%t" -T "album=%g" -T "date=%y" -T "tracknumber=%n" -T "genre=%m" -T "comment=EAC 0.9beta4 / FLAC 1.1.0 q6" %s


TOC of the extracted CD

Track | Start | Length | Start sector | End sector
---------------------------------------------------------
1 | 0:00.37 | 6:01.53 | 37 | 27164
2 | 6:02.15 | 4:50.55 | 27165 | 48969
3 | 10:52.70 | 1:21.52 | 48970 | 55096
4 | 12:14.47 | 3:18.05 | 55097 | 69951
5 | 15:32.52 | 5:36.03 | 69952 | 95154
6 | 21:08.55 | 6:01.50 | 95155 | 122279
7 | 27:10.30 | 5:12.70 | 122280 | 145749
8 | 32:23.25 | 2:27.67 | 145750 | 156841
9 | 34:51.17 | 6:01.28 | 156842 | 183944
10 | 40:52.45 | 3:46.30 | 183945 | 200924


Range status and errors

Selected range

Filename Y:\Музыка\Blind Guardian\1990 Tales From The Twilight World\Blind Guardian - Tales From The Twilight World [VICP-8012].wav

Peak level 91.7 %
Range quality 100.0 %
Copy CRC 1775195C
Copy OK

No errors occurred

End of status report


Состав:
Hansi Kürsch: Vocals, bass
Andre Olbrich: Guitars
Marcus Siepen: Guitars
Thomas Stauch: Drums
Kai Hansen (Gamma Ray) appears as guest singer in "Lost In The Twilight Hall".

Народ

_________________
Витасу до Даймонда как Алсу до Руссоса | При переразмещении - спрашивать разрешение!!


Top
 Profile  
 
 
PostPosted: 07 Apr 2010 
HAMMER
User avatar
Joined: 16 May 2009
Posts: 5459
Lоcаtion: Тверь
Age: 46
Name: Александр
Мама дорогая....Спасибо :true: :true: :true: .Ну и 1992 давай выкладывай ,что ли . :thanx:


Top
 Profile E-mail  
 
 
PostPosted: 07 Apr 2010 
ыыыы
User avatar
Joined: 17 May 2009
Posts: 952
Lоcаtion: Пушкино, МО
Age: 40
Name: Дмитрий
Molot wrote:
Мама дорогая....Спасибо :true: :true: :true: .Ну и 1992 давай выкладывай ,что ли . :thanx:

Блин...я вот думал заливать или нет- он на рутракере же есть..

_________________
Витасу до Даймонда как Алсу до Руссоса | При переразмещении - спрашивать разрешение!!


Top
 Profile  
 
 
PostPosted: 07 Apr 2010 
Motörheadache
User avatar
Joined: 04 Feb 2010
Posts: 1294
Lоcаtion: Впереди- горы,позади-степи
Age: 45
Name: Александр
Molot wrote:
.Ну и 1992 давай выкладывай ,что ли . :thanx:

Угу...трезвая и позитивная по-своей правильности мысль :true: :smile:

_________________
Eine Nation, Ein Land, Eine Schnaps!

Наш священный долг:защищать Родину,и соблюдать правила личной гигиены....!


Top
 Profile E-mail  
 
Display posts from previous:  Sort by  
Post new topic Reply to topic  [ 4 posts ] 

All times are UTC + 3 hours


Who is online

Users browsing this forum: No registered users and 2 guests


You cannot post new topics in this forum
You cannot reply to topics in this forum
You cannot edit your posts in this forum
You cannot delete your posts in this forum
You cannot post attachments in this forum

Search for:
Яндекс.Метрика
Powered by phpBB © 2000, 2002, 2005, 2007 phpBB Group