\m/ 80's metal \m/

Информационно-аналитический форум "80 см пыли" (In Search We Trust) "У нас никто никуда не спешит"
Me For You - http://me-4u.com
It is currently 22 Oct 2018

All times are UTC + 3 hours

Spoiler
Chat - temporary registration for foreign users (please leave your application here)







Post new topic Reply to topic  [ 14 posts ] 
Author Message
 
PostPosted: 07 Apr 2010 
ыыыы
User avatar
Joined: 17 May 2009
Posts: 952
Lоcаtion: Пушкино, МО
Age: 40
Name: Дмитрий
Image


Жанр: Speed Metal/Heavy Metal
Происхождение исполнителя: Германия
Год издания: 1989
Год издания данного носителя: 1990
Страна-производитель носителя: Япония
Аудио кодек: FLAC
Тип рипа: image+.cue
Битрейт аудио: lossless
Продолжительность: 43:29
Рип: Собственный
Лейбл: NO REMORSE/VICTOR
Каталоговый номер: VICP-8014
Матрица: VICP-8014-2-A2F 21 V (JVC)

Треклист:
1. Inquisition 00:41
2. Banish from Sanctuary 05:31
3. Damned for All Time 05:01
4. Follow the Blind 07:15
5. Hall of the King 04:19
6. Fast to Madness 06:01
7. Beyond the Ice 03:32
8. Valhalla 05:00
9. Don't Break the Circle (Demon Cover) 04:21
10. Barbara Ann 01:46

"Куй"
REM GENRE "Heavy Metal"
REM DATE 1989
REM DISCID 710A310A
REM COMMENT "ExactAudioCopy v0.99pb5"
PERFORMER "Blind Guardian"
TITLE "Follow The Blind [VICP-8014]"
FILE "Blind Guardian - Follow The Blind [VICP-8014].flac" WAVE
TRACK 01 AUDIO
TITLE "Inquisition"
PERFORMER "Blind Guardian"
INDEX 00 00:00:00
INDEX 01 00:00:37
TRACK 02 AUDIO
TITLE "Banish From Sanctuary"
PERFORMER "Blind Guardian"
INDEX 01 00:41:72
TRACK 03 AUDIO
TITLE "Damned For All Time"
PERFORMER "Blind Guardian"
INDEX 00 06:10:63
INDEX 01 06:13:07
TRACK 04 AUDIO
TITLE "Follow The Blind"
PERFORMER "Blind Guardian"
INDEX 00 11:12:48
INDEX 01 11:14:07
TRACK 05 AUDIO
TITLE "Hall Of The King"
PERFORMER "Blind Guardian"
INDEX 00 18:28:03
INDEX 01 18:29:40
TRACK 06 AUDIO
TITLE "Fast To Madness"
PERFORMER "Blind Guardian"
INDEX 00 22:48:01
INDEX 01 22:48:70
TRACK 07 AUDIO
TITLE "Beyond The Ice"
PERFORMER "Blind Guardian"
INDEX 00 28:48:66
INDEX 01 28:50:10
TRACK 08 AUDIO
TITLE "Valhalla"
PERFORMER "Blind Guardian"
INDEX 00 32:20:61
INDEX 01 32:22:42
TRACK 09 AUDIO
TITLE "Don't Break The Circle"
PERFORMER "Blind Guardian"
INDEX 00 37:21:51
INDEX 01 37:22:12
TRACK 10 AUDIO
TITLE "Barbara Ann"
PERFORMER "Blind Guardian"
INDEX 00 41:42:71
INDEX 01 41:43:32


"Лог"
Exact Audio Copy V0.99 prebeta 5 from 4. May 2009

EAC extraction logfile from 7. April 2010, 12:09

Blind Guardian / Follow The Blind [VICP-8014]

Used drive : Optiarc DVD RW AD-7200A Adapter: 0 ID: 0

Read mode : Secure
Utilize accurate stream : Yes
Defeat audio cache : Yes
Make use of C2 pointers : No

Read offset correction : 48
Overread into Lead-In and Lead-Out : No
Fill up missing offset samples with silence : Yes
Delete leading and trailing silent blocks : No
Null samples used in CRC calculations : Yes
Used interface : Native Win32 interface for Win NT & 2000

Used output format : User Defined Encoder
Selected bitrate : 128 kBit/s
Quality : High
Add ID3 tag : No
Command line compressor : C:\Program Files\Exact Audio Copy\Flac\flac.exe
Additional command line options : -8 -V -T "artist=%a" -T "title=%t" -T "album=%g" -T "date=%y" -T "tracknumber=%n" -T "genre=%m" -T "comment=EAC 0.9beta4 / FLAC 1.1.0 q6" %s


TOC of the extracted CD

Track | Start | Length | Start sector | End sector
---------------------------------------------------------
1 | 0:00.37 | 0:41.35 | 37 | 3146
2 | 0:41.72 | 5:31.10 | 3147 | 27981
3 | 6:13.07 | 5:01.00 | 27982 | 50556
4 | 11:14.07 | 7:15.33 | 50557 | 83214
5 | 18:29.40 | 4:19.30 | 83215 | 102669
6 | 22:48.70 | 6:01.15 | 102670 | 129759
7 | 28:50.10 | 3:32.32 | 129760 | 145691
8 | 32:22.42 | 4:59.45 | 145692 | 168161
9 | 37:22.12 | 4:21.20 | 168162 | 187756
10 | 41:43.32 | 1:46.23 | 187757 | 195729


Range status and errors

Selected range

Filename Y:\Музыка\Blind Guardian\1989 Follow The Blind\Blind Guardian - Follow The Blind [VICP-8014].wav

Peak level 98.0 %
Range quality 100.0 %
Copy CRC B9430A1A
Copy OK

No errors occurred

End of status report


Состав:
Hansi Kürsch: Vocals, bass
Andre Olbrich: Guitars
Marcus Siepen: Guitars
Thomas Stauch: Drums
Kai Hansen: Vocals on "Valhalla"

Народ

_________________
Витасу до Даймонда как Алсу до Руссоса | При переразмещении - спрашивать разрешение!!


Top
 Profile  
 
 
PostPosted: 07 Apr 2010 
HAMMER
User avatar
Joined: 16 May 2009
Posts: 5397
Lоcаtion: Тверь
Age: 45
Name: Александр
Вот спасибо так спасибо.Один из любимых мной альбомов. :thanx: :true: :true: :true: :meloman:


Top
 Profile E-mail  
 
 
PostPosted: 07 Apr 2010 
Хиппей (support team)
User avatar
Joined: 30 Jul 2007
Posts: 107101
Lоcаtion: Киев (Kyiv, UA)
Age: 45
Name: Andrey
Molot wrote:
Один из любимых мной альбомов

А самый любимый не 87-й? :(

_________________


Top
 Profile E-mail  
 
 
PostPosted: 07 Apr 2010 
HAMMER
User avatar
Joined: 16 May 2009
Posts: 5397
Lоcаtion: Тверь
Age: 45
Name: Александр
Все нравятся по 1992 включительно. :meloman:


Top
 Profile E-mail  
 
 
PostPosted: 07 Apr 2010 
Хиппей (support team)
User avatar
Joined: 30 Jul 2007
Posts: 107101
Lоcаtion: Киев (Kyiv, UA)
Age: 45
Name: Andrey
Коллега :true:

_________________


Top
 Profile E-mail  
 
 
PostPosted: 07 Apr 2010 
ыыыы
User avatar
Joined: 17 May 2009
Posts: 952
Lоcаtion: Пушкино, МО
Age: 40
Name: Дмитрий
Scatterbrain wrote:
Molot wrote:
Один из любимых мной альбомов

А самый любимый не 87-й? :(

Это что ж за альбом такой???

_________________
Витасу до Даймонда как Алсу до Руссоса | При переразмещении - спрашивать разрешение!!


Top
 Profile  
 
 
PostPosted: 07 Apr 2010 
HAMMER
User avatar
Joined: 16 May 2009
Posts: 5397
Lоcаtion: Тверь
Age: 45
Name: Александр
iezuit wrote:
Это что ж за альбом такой???

Battalions Of Fear ,он где проскакивает как 87 и как 88,фиг его точно знает.На архивах он 88


Top
 Profile E-mail  
 
 
PostPosted: 07 Apr 2010 
ыыыы
User avatar
Joined: 17 May 2009
Posts: 952
Lоcаtion: Пушкино, МО
Age: 40
Name: Дмитрий
Scatterbrain wrote:
Коллега :true:

Коллега коллеги!!!
Quote:
Все нравятся по 1992 включительно. :meloman:

Сёдня выложу с 88 по 92 +93 как итог

_________________
Витасу до Даймонда как Алсу до Руссоса | При переразмещении - спрашивать разрешение!!


Top
 Profile  
 
 
PostPosted: 07 Apr 2010 
Motörheadache
User avatar
Joined: 04 Feb 2010
Posts: 1294
Lоcаtion: Впереди- горы,позади-степи
Age: 45
Name: Александр
Molot wrote:
Все нравятся по 1992 включительно. :meloman:

плюспитсот однако.... :true:
По инерции катит даже 95-й,а вот потом......потом- :( ( ИМХО конечно)...

_________________
Eine Nation, Ein Land, Eine Schnaps!

Наш священный долг:защищать Родину,и соблюдать правила личной гигиены....!


Top
 Profile E-mail  
 
 
PostPosted: 07 Apr 2010 
Power Metal Maniac
User avatar
Joined: 09 Aug 2008
Posts: 6317
Lоcаtion: Москва
Age: 40
Name: Егор
мне и 95 уже не катит, а несколько лет назад пробовал переслушать - только раздрадение вызвал. а первые альбомы - очень хороши.

_________________
Long Live Metal!


Top
 Profile  
 
 
PostPosted: 07 Apr 2010 
Metal Collector
User avatar
Joined: 16 Nov 2008
Posts: 1230
Lоcаtion: Химки
Age: 35
Name: Андрей
Дима, спасибо за всех Блайндов! Кое-что возьму себе.


Top
 Profile E-mail  
 
 
PostPosted: 07 Apr 2010 
Alive Again
User avatar
Joined: 17 Dec 2008
Posts: 4704
Lоcаtion: Курск Воронеж Оскол
Age: 44
Name: Дмитрий
alexx1973 wrote:
Molot wrote:
Все нравятся по 1992 включительно. :meloman:

плюспитсот однако.... :true:
По инерции катит даже 95-й,а вот потом......потом- :( ( ИМХО конечно)...


+1000 :true:


Top
 Profile E-mail  
 
 
PostPosted: 08 Apr 2010 
Персональный статус
User avatar
Joined: 16 Jul 2008
Posts: 222
Lоcаtion: Киров
Age: 29
Name: Олег
Вот класс, зачетный альбом :true:
Тоже нравится только по 92г, но самые любимые - демки Lucifer's Heritage. :dance:


Top
 Profile  
 
 
PostPosted: 08 Apr 2010 
Я набрал 1000 сообщений!
User avatar
Joined: 25 Dec 2008
Posts: 1545
Age: 43
Name: Павел
EG Power wrote:
первые альбомы - очень хороши

Первые два очень сырые и по музыке подражание Helloween.Хотя сейчас это уже классика спид-метал.Для меня лучшие-следующие 3 альбома,здесь уже нет подражаний и появился свой собственный уникальный стиль,да и музыка стала посложнее.Потом,увы,альбомы стали слабее-сильно понесло в прогрессив.


Top
 Profile  
 
Display posts from previous:  Sort by  
Post new topic Reply to topic  [ 14 posts ] 

All times are UTC + 3 hours


Who is online

Users browsing this forum: No registered users and 3 guests


You cannot post new topics in this forum
You cannot reply to topics in this forum
You cannot edit your posts in this forum
You cannot delete your posts in this forum
You cannot post attachments in this forum

Search for:
Яндекс.Метрика
Powered by phpBB © 2000, 2002, 2005, 2007 phpBB Group