\m/ 80's metal \m/

Информационно-аналитический форум "80 см пыли" (In Search We Trust) "У нас никто никуда не спешит"
Me For You - http://me-4u.com
It is currently 11 Dec 2018

All times are UTC + 3 hours

Spoiler
Chat - temporary registration for foreign users (please leave your application here)







Post new topic Reply to topic  [ 8 posts ] 
Author Message
 
PostPosted: 04 Apr 2010 
metallpaparazzy
User avatar
Joined: 20 Dec 2009
Posts: 674
Lоcаtion: Днепропетровск
Age: 43
Name: Геннадий
Image

Bewarp (Swe) -- In Your Face
1995 Bellaphon, Germany

Pete Sandberg -- voice
Dick Bewarp -- guitars
Dan T. Ekfeldt -- bass
Rikard Dahl -- drums

1. Conversion
2. In Your Face
3. Wild Side
4. Free Love
5. I Want It All
6. Childs Play
7. Love Me Or...
8. Dance With Me
9. Trouble
10. Skin To Skin
11. Tonight
12. My Kind Of Woman
13. Do Ya, Do Ya
14. Warp Speed

cue
REM GENRE "Hard Rock"
REM DATE 1995
REM DISCID BC0A0C0E
REM COMMENT "ExactAudioCopy v0.95b4"
PERFORMER "Bewarp"
TITLE "In Your Face"
FILE "Bewarp - In Your Face.wav" WAVE
TRACK 01 AUDIO
TITLE "Conversion"
PERFORMER "Bewarp"
INDEX 01 00:00:00
TRACK 02 AUDIO
TITLE " In Your Face"
PERFORMER "Bewarp"
INDEX 01 00:50:27
TRACK 03 AUDIO
TITLE "Wild Side"
PERFORMER "Bewarp"
INDEX 00 03:52:72
INDEX 01 03:53:50
TRACK 04 AUDIO
TITLE "Free Love"
PERFORMER "Bewarp"
INDEX 01 07:23:52
TRACK 05 AUDIO
TITLE "I Want It All"
PERFORMER "Bewarp"
INDEX 01 11:00:57
TRACK 06 AUDIO
TITLE "Childs Play"
PERFORMER "Bewarp"
INDEX 00 13:58:02
INDEX 01 13:59:40
TRACK 07 AUDIO
TITLE " Love Me Or..."
PERFORMER "Bewarp"
INDEX 00 18:30:57
INDEX 01 18:30:65
TRACK 08 AUDIO
TITLE "Dance With Me"
PERFORMER "Bewarp"
INDEX 00 21:30:32
INDEX 01 21:32:40
TRACK 09 AUDIO
TITLE " Trouble"
PERFORMER "Bewarp"
INDEX 00 24:15:05
INDEX 01 24:15:62
TRACK 10 AUDIO
TITLE "Skin To Skin"
PERFORMER "Bewarp"
INDEX 00 27:55:37
INDEX 01 27:57:12
TRACK 11 AUDIO
TITLE "Tonight"
PERFORMER "Bewarp"
INDEX 00 30:54:45
INDEX 01 30:55:25
TRACK 12 AUDIO
TITLE "My Kind Of Woman"
PERFORMER "Bewarp"
INDEX 00 35:00:67
INDEX 01 35:02:57
TRACK 13 AUDIO
TITLE "Do Ya, Do Ya"
PERFORMER "Bewarp"
INDEX 00 38:13:10
INDEX 01 38:14:72
TRACK 14 AUDIO
TITLE "Warp Speed"
PERFORMER "Bewarp"
INDEX 01 41:25:07


log
Отчёт EAC об извлечении, выполненном 4. апреля 2010, 22:05 для диска:
Bewarp / In Your Face

Дисковод: Optiarc DVD RW AD-7170S Adapter: 1 ID: 1
Режим чтения: Достоверный (C2: нет, Точный поток: да, Отключение кэша: да)
Коррекция смещения при чтении: 48
Способность читать области Lead-in и Lead-out : Нет

Выходной формат: Внутренние WAV-операции
44.100 Гц; 16 бит; стерео

Другие параметры:
Заполнение пропущенных сэмплов тишиной : Да
Удаление блоков с тишиной в начале и конце : Нет
Установленный внешний ASPI-интерфейс


Характеристики диапазона извлечения и сообщения об ошибках
Выбранный диапазон
Имя файла C:\Documents and Settings\Admin\Рабочий стол\ЛОСИНАЯ ФЕРМА\МОИ ЛОСИ\BEWARP\Bewarp - In Your Face.wav

Пиковый уровень 98.3 %
Качество диапазона 99.2 %
CRC C85100A1
Копирование... OK

Ошибок не произошло

Конец отчёта


http://www.multiupload.com/RDZV9560C0 (flac)

http://www.multiupload.com/M43TXP16O6 [320]
рип мой, фирма. не удержалси я, и приобрел ентот албум :oops: после долгих искушений одним барыгой на балке :nunu:
команда клевая, ненапряжный прифанкованый глэмчик :meloman: правда фанка, по сравнению с предыдущим альбомом, чуть меньше :pardon: но не менее весело и задорно :dance:
картиночки, как всегда, присутствуют :true:


Top
 Profile E-mail  
 
 
PostPosted: 07 Apr 2010 
Персональный статус
User avatar
Joined: 02 Jul 2009
Posts: 293
Name: Александр
Спасибо !!! :thanx:


Top
 Profile E-mail  
 
 
PostPosted: 07 Apr 2010 
Персональный статус
Joined: 02 Apr 2010
Posts: 223
Name: Андрей
Спасибо! Очень даже неплохой музон... :meloman:


Top
 Profile  
 
 
PostPosted: 07 Apr 2010 
metallpaparazzy
User avatar
Joined: 20 Dec 2009
Posts: 674
Lоcаtion: Днепропетровск
Age: 43
Name: Геннадий
в анонсах есть первый альбом, в мп3. и ешо советую заценить Scam Luiz - Heading For The Dream (1992), тоже в анонсах есть


Top
 Profile E-mail  
 
 
PostPosted: 07 Apr 2010 
хард н хэвщик (support team)
User avatar
Joined: 02 Jun 2008
Posts: 16880
Lоcаtion: Н.Новгород
Age: 31
Name: Артем
metallroll wrote:
и ешо советую заценить Scam Luiz - Heading For The Dream (1992),

о! спасибо что напомнил, на днях залью 1993


Top
 Profile  
 
 
PostPosted: 07 Apr 2010 
metallpaparazzy
User avatar
Joined: 20 Dec 2009
Posts: 674
Lоcаtion: Днепропетровск
Age: 43
Name: Геннадий
а че, таки нашелси? ЖДУ!!! :dance:


Top
 Profile E-mail  
 
 
PostPosted: 07 Apr 2010 
хард н хэвщик (support team)
User avatar
Joined: 02 Jun 2008
Posts: 16880
Lоcаtion: Н.Новгород
Age: 31
Name: Артем
хм, проверил дискографию - оказывается, были и другие SCAM LUIZ:
http://www.discogs.com/Sc%C3%A4m-Luiz-B ... se/1200261
http://www.musik-sammler.de/artist/42034


Top
 Profile  
 
 
PostPosted: 07 Apr 2010 
metallpaparazzy
User avatar
Joined: 20 Dec 2009
Posts: 674
Lоcаtion: Днепропетровск
Age: 43
Name: Геннадий
да я пробывал че-то поискать, но куда уж мне тягатся с таким монстром поиска :oops: да и времени, как всегда, не хватает :dash:
заливай все, что нароеш! :true:


Top
 Profile E-mail  
 
Display posts from previous:  Sort by  
Post new topic Reply to topic  [ 8 posts ] 

All times are UTC + 3 hours


Who is online

Users browsing this forum: No registered users and 3 guests


You cannot post new topics in this forum
You cannot reply to topics in this forum
You cannot edit your posts in this forum
You cannot delete your posts in this forum
You cannot post attachments in this forum

Search for:
Яндекс.Метрика
Powered by phpBB © 2000, 2002, 2005, 2007 phpBB Group