\m/ 80's metal \m/

Информационно-аналитический форум "80 см пыли" (In Search We Trust) "У нас никто никуда не спешит"
Me For You - http://me-4u.com
It is currently 15 Dec 2018

All times are UTC + 3 hours

Spoiler
Chat - temporary registration for foreign users (please leave your application here)







Post new topic Reply to topic  [ 33 posts ]  Go to page Previous  1, 2
Author Message
 
PostPosted: 20 Nov 2016 
Old Time Rock`n`Roll
User avatar
Joined: 23 Jun 2008
Posts: 3376
Lоcаtion: г.Ульяновск
Age: 40
Name: Константин
Так в Южной Америке заборов-то нет)
Там тока плетеные изгороди. Как в Рэмбе :bah:


Top
 Profile  
 
 
PostPosted: 20 Nov 2016 
Хиппей (support team)
User avatar
Joined: 30 Jul 2007
Posts: 108944
Lоcаtion: Киев (Kyiv, UA)
Age: 45
Name: Andrey
Пусть и у нас побудет :pardon:

Burn - 1983 - So Far, So Bad [ape]

mirror: iFolder l Narod l M-Cloud

log
Exact Audio Copy V0.99 prebeta 4 from 23. January 2008

EAC extraction logfile from 30. January 2013, 19:43

BURN / So Far,So Bad

Used drive : PIONEER DVD-RW DVR-212 Adapter: 5 ID: 0

Read mode : Secure
Utilize accurate stream : Yes
Defeat audio cache : Yes
Make use of C2 pointers : No

Read offset correction : 48
Overread into Lead-In and Lead-Out : No
Fill up missing offset samples with silence : Yes
Delete leading and trailing silent blocks : No
Null samples used in CRC calculations : Yes
Used interface : Native Win32 interface for Win NT & 2000

Used output format : Internal WAV Routines
Sample format : 44.100 Hz; 16 Bit; Stereo


TOC of the extracted CD

Track | Start | Length | Start sector | End sector
---------------------------------------------------------
1 | 0:00.32 | 4:14.38 | 32 | 19119
2 | 4:14.70 | 4:11.17 | 19120 | 37961
3 | 8:26.12 | 4:27.33 | 37962 | 58019
4 | 12:53.45 | 4:36.37 | 58020 | 78756
5 | 17:30.07 | 4:22.33 | 78757 | 98439
6 | 21:52.40 | 3:09.05 | 98440 | 112619
7 | 25:01.45 | 3:18.22 | 112620 | 127491
8 | 28:19.67 | 4:19.48 | 127492 | 146964
9 | 32:39.40 | 4:24.37 | 146965 | 166801
10 | 37:04.02 | 6:08.70 | 166802 | 194471


Range status and errors

Selected range

Filename D:\temp\BURN - So Far,So Bad.wav

Peak level 94.5 %
Range quality 100.0 %
Copy CRC 700BD62D
Copy OK

No errors occurred


AccurateRip summary

Track 1 accurately ripped (confidence 2) [A8AC9899]
Track 2 accurately ripped (confidence 2) [CA38DA42]
Track 3 accurately ripped (confidence 2) [C9920D1F]
Track 4 accurately ripped (confidence 2) [901CED58]
Track 5 accurately ripped (confidence 2) [DDDF13D9]
Track 6 accurately ripped (confidence 2) [632A2B01]
Track 7 accurately ripped (confidence 2) [A42B90E0]
Track 8 accurately ripped (confidence 2) [7E2FB30E]
Track 9 accurately ripped (confidence 2) [B4C15C8D]
Track 10 accurately ripped (confidence 2) [CE64FA49]

All tracks accurately ripped

End of status report

cue
REM GENRE "Hard Rock"
REM DATE 1993
REM DISCID 6F0A200A
REM COMMENT "ExactAudioCopy v0.99pb4"
PERFORMER "BURN"
TITLE "So Far,So Bad"
FILE "BURN - So Far,So Bad.ape" WAVE
TRACK 01 AUDIO
TITLE "Knock Me Out"
PERFORMER "BURN"
INDEX 00 00:00:00
INDEX 01 00:00:32
TRACK 02 AUDIO
TITLE "Maybe Its Love"
PERFORMER "BURN"
INDEX 01 04:14:70
TRACK 03 AUDIO
TITLE "So Far,So Bad"
PERFORMER "BURN"
INDEX 00 08:24:32
INDEX 01 08:26:12
TRACK 04 AUDIO
TITLE "Standing On The Edge"
PERFORMER "BURN"
INDEX 00 12:53:42
INDEX 01 12:53:45
TRACK 05 AUDIO
TITLE "Boys Night Out"
PERFORMER "BURN"
INDEX 00 17:29:05
INDEX 01 17:30:07
TRACK 06 AUDIO
TITLE "Rip It Up"
PERFORMER "BURN"
INDEX 01 21:52:40
TRACK 07 AUDIO
TITLE "Time And Time Again"
PERFORMER "BURN"
INDEX 00 25:01:30
INDEX 01 25:01:45
TRACK 08 AUDIO
TITLE "We Are The Young"
PERFORMER "BURN"
INDEX 01 28:19:67
TRACK 09 AUDIO
TITLE "Doctors Orders"
PERFORMER "BURN"
INDEX 01 32:39:40
TRACK 10 AUDIO
TITLE "Into The Fire"
PERFORMER "BURN"
INDEX 00 37:02:65
INDEX 01 37:04:02

_________________


Top
 Profile E-mail  
 
 
PostPosted: 20 Nov 2016 
5cm
User avatar
Joined: 28 Mar 2013
Posts: 66
Age: 28
Name: Erik
Many Thanks !!

:blum: !!


Top
 Profile E-mail  
 
 
PostPosted: 20 Nov 2016 
Хиппей (support team)
User avatar
Joined: 30 Jul 2007
Posts: 108944
Lоcаtion: Киев (Kyiv, UA)
Age: 45
Name: Andrey
McKagan wrote:
Genre: хард-рок, мелодик; полное отсутствие модерновых элементов

Собственно - согласен. Плюс добавлю, что хард-рок молодёжный, а не старпёрский.
Ну и вполне удобоваримый для прослушивания :meloman:
Хитовенько, гладенько, в меру меру попсовенько.

6/10

_________________


Top
 Profile E-mail  
 
 
PostPosted: 10 Jan 2017 
Трешер
User avatar
Joined: 25 Feb 2011
Posts: 1062
Lоcаtion: Харьков
Age: 42
Name: Aleksandr
Спасибо Андрюх не слушал их раньше. Ознакомлюсь. :thanx:

Это с Шведским Горением будет по сложнее :oops: http://www.metal-archives.com/bands/Burn/44310


Last edited by glloomerxe on 10 Jan 2017, edited 1 time in total.

Top
 Profile E-mail  
 
 
PostPosted: 10 Jan 2017 
Хиппей (support team)
User avatar
Joined: 30 Jul 2007
Posts: 108944
Lоcаtion: Киев (Kyiv, UA)
Age: 45
Name: Andrey
Ой, как раз в чате альбом (лося) просили обновить :tro:
Сань, или это ты попросил там? :scratch:

_________________


Top
 Profile E-mail  
 
 
PostPosted: 10 Jan 2017 
Трешер
User avatar
Joined: 25 Feb 2011
Posts: 1062
Lоcаtion: Харьков
Age: 42
Name: Aleksandr
Нет это не я и там Шведов просят :pardon:

вот этот я так понял в лосе хотят https://rutracker.org/forum/viewtopic.php?t=3187918

Вот по Шведам тема - Burn


Last edited by glloomerxe on 10 Jan 2017, edited 2 times in total.

Top
 Profile E-mail  
 
 
PostPosted: 10 Jan 2017 
Хиппей (support team)
User avatar
Joined: 30 Jul 2007
Posts: 108944
Lоcаtion: Киев (Kyiv, UA)
Age: 45
Name: Andrey
А, тьху, там шведский Бёрн просили и 1983 года :tro: :oops:

_________________


Top
 Profile E-mail  
 
 
PostPosted: 10 Jan 2017 
Трешер
User avatar
Joined: 25 Feb 2011
Posts: 1062
Lоcаtion: Харьков
Age: 42
Name: Aleksandr
А второй альбом есть в лосе? 1995 Spark To A Flame ?

Сканами поделитесь на первый , ссылки все издохли.


Top
 Profile E-mail  
 
 
PostPosted: 10 Jan 2017 
Хиппей (support team)
User avatar
Joined: 30 Jul 2007
Posts: 108944
Lоcаtion: Киев (Kyiv, UA)
Age: 45
Name: Andrey
:vic:

А сканов в рипе не было, как сказал Артём.

_________________


Top
 Profile E-mail  
 
 
PostPosted: 10 Jan 2017 
Хиппей (support team)
User avatar
Joined: 30 Jul 2007
Posts: 108944
Lоcаtion: Киев (Kyiv, UA)
Age: 45
Name: Andrey
Ага, сканы были позже. Затем Костик перезаливал...
Повторить бы :kro:

_________________


Top
 Profile E-mail  
 
 
PostPosted: 11 Jan 2017 
Трешер
User avatar
Joined: 25 Feb 2011
Posts: 1062
Lоcаtion: Харьков
Age: 42
Name: Aleksandr
Ага повторить :thanx:

Андрюха 1993 а не 1983 :pardon:


Top
 Profile E-mail  
 
 
PostPosted: 15 Mar 2017 
Хиппей (support team)
User avatar
Joined: 30 Jul 2007
Posts: 108944
Lоcаtion: Киев (Kyiv, UA)
Age: 45
Name: Andrey
Ага повторить :thanx:

Андрюха 1993 а не 1983 :pardon:

Ага, ага..

_________________


Top
 Profile E-mail  
 
Display posts from previous:  Sort by  
Post new topic Reply to topic  [ 33 posts ]  Go to page Previous  1, 2

All times are UTC + 3 hours


Who is online

Users browsing this forum: No registered users and 2 guests


You cannot post new topics in this forum
You cannot reply to topics in this forum
You cannot edit your posts in this forum
You cannot delete your posts in this forum
You cannot post attachments in this forum

Search for:
Яндекс.Метрика
Powered by phpBB © 2000, 2002, 2005, 2007 phpBB Group