\m/ 80's metal \m/

Информационно-аналитический форум "80 см пыли" (In Search We Trust) "У нас никто никуда не спешит"
Me For You - http://me-4u.com
It is currently 21 Oct 2018

All times are UTC + 3 hours

Spoiler
Chat - temporary registration for foreign users (please leave your application here)







Post new topic Reply to topic  [ 17 posts ] 
Author Message
 
PostPosted: 02 Mar 2010 
Прокъмитолист
User avatar
Joined: 12 Aug 2007
Posts: 6490
Lоcаtion: Санктъ-Петербуркъ
Age: 51
Name: Олекъ
Bloodgood [1991] All Stand Together
Broken Records (CDO8793)

Image

Genre: christian hard'n'heavy
Country: USA
Contents: flac/cue/covers
Size: 331 MB

Tracklist:
01. S.O.S.
02. All Stand Together
03. Escape From The Fire
04. Out Of Love
05. Say Goodbye
06. Kingdom Come
07. Fear No Evil
08. Help Me
09. Rounded Are The Rocks
10. Lies In The Dark
11. Streetlight Dancer
12. I Want To Live In Your Heart

Playtime: 49:57

Lineup:
Les Carlsen - vocals
Paul Jackson - guitars
Michael Bloodgood - bass
Tim Heintz - keyboards
David Huff - drums

Спасибо за рип Явору (Metallord). Я лишь немного подрихтовал его - вырезал лишние 2 секунды перед всеми вещами, ну, и обложки добавил инетовские. Лога не было, в базе АР диск отсутствует... но спектр хороший:

Image

_________________
прокъметол - это музыко, от которово есть прок (ы)


Top
 Profile  
 
 
PostPosted: 02 Mar 2010 
Хиппей (support team)
User avatar
Joined: 30 Jul 2007
Posts: 107089
Lоcаtion: Киев (Kyiv, UA)
Age: 45
Name: Andrey
:thanx:

_________________


Top
 Profile E-mail  
 
 
PostPosted: 02 Mar 2010 
хард н хэвщик (support team)
User avatar
Joined: 02 Jun 2008
Posts: 16880
Lоcаtion: Н.Новгород
Age: 31
Name: Артем
:true:


Top
 Profile  
 
 
PostPosted: 02 Mar 2010 
спирт 100%
User avatar
Joined: 22 Sep 2008
Posts: 4305
Age: 47
Name: Саня
Спасибо!!! :thanx:


Top
 Profile  
 
 
PostPosted: 03 Mar 2010 
Почётный металлург
User avatar
Joined: 15 Sep 2007
Posts: 4357
Lоcаtion: Хабаровск
Age: 58
Name: чуть выше
И от меня спасибо!

_________________
Коль будешь людей ты ослами честить,
тебе человеком меж них не прослыть!
(Саади, персидский поэт, 13в.)


Top
 Profile  
 
 
PostPosted: 03 Mar 2010 
адын фелософъ прокметолу
User avatar
Joined: 22 Oct 2009
Posts: 2702
Lоcаtion: Сочи
Age: 41
Name: Сергей
Спасибо :thanx:

_________________
А теперь ... клоунов и стриптизёрш!


Top
 Profile E-mail  
 
 
PostPosted: 04 Mar 2010 
Персональный статус
User avatar
Joined: 29 Sep 2009
Posts: 271
Lоcаtion: Надым
Age: 40
Name: Виталий
Спасибо огромное!!! :dance:


Top
 Profile E-mail  
 
 
PostPosted: 04 Jul 2011 
Хиппей (support team)
User avatar
Joined: 30 Jul 2007
Posts: 107089
Lоcаtion: Киев (Kyiv, UA)
Age: 45
Name: Andrey
Хм, странно, но ссылка таво... :fingal:
Это я так, просто проверил. Альбом ведь у всех давно есть?

_________________


Top
 Profile E-mail  
 
 
PostPosted: 05 Jul 2011 
Прокъмитолист
User avatar
Joined: 12 Aug 2007
Posts: 6490
Lоcаtion: Санктъ-Петербуркъ
Age: 51
Name: Олекъ
опаньке :shok: у меня на меге еще не подыхало ничего... видимо никто совсем не качал :pardon:

_________________
прокъметол - это музыко, от которово есть прок (ы)


Top
 Profile  
 
 
PostPosted: 05 Jul 2011 
Хиппей (support team)
User avatar
Joined: 30 Jul 2007
Posts: 107089
Lоcаtion: Киев (Kyiv, UA)
Age: 45
Name: Andrey
spiralarch wrote:
опаньке :shok:

Вот и я о том же. Кстати, Олег, файл (остатки) у тебя на Меге виден еще? Там статистика должна остаться по скачиванию http://www.megaupload.com/?c=filemanager
Сдается мне, его просто сама же Мега и потёрла.

_________________


Top
 Profile E-mail  
 
 
PostPosted: 05 Jul 2011 
Прокъмитолист
User avatar
Joined: 12 Aug 2007
Posts: 6490
Lоcаtion: Санктъ-Петербуркъ
Age: 51
Name: Олекъ
неа, никаких остатков, ваще ничего :vic:

_________________
прокъметол - это музыко, от которово есть прок (ы)


Top
 Profile  
 
 
PostPosted: 05 Jul 2011 
Хиппей (support team)
User avatar
Joined: 30 Jul 2007
Posts: 107089
Lоcаtion: Киев (Kyiv, UA)
Age: 45
Name: Andrey
Странно. Я бы им неписал в суппорт по этому поводу
Хотя, судя по предыдущему опыту - фиг что ответят :fingal: Могут сказать, что за 90 дней файл ни разу не скачали (хотя это брехня, я так точно скачивал), и всё. Хрен проверишь. Странное дело, но у меня за 4 года пока ни один файл там не пропал просто так :vic:

_________________


Top
 Profile E-mail  
 
 
PostPosted: 05 Jul 2011 
Прокъмитолист
User avatar
Joined: 12 Aug 2007
Posts: 6490
Lоcаtion: Санктъ-Петербуркъ
Age: 51
Name: Олекъ
ну у меня в акаунте болтаются файлы двухлетней давности, которые стопудово никто не качает - и ничего, живы...

что же касается этого альбома Bloodgood, то мне думается, нет смысла перезаливать тот же рип (с некоторыми косяками). с тех пор пираты подсуетились, и все альбомы Bloodgood теперь доступны в лучшем виде (наверняка у Вити rd в доке есть) :oops:

_________________
прокъметол - это музыко, от которово есть прок (ы)


Top
 Profile  
 
 
PostPosted: 06 Jul 2011 
Хиппей (support team)
User avatar
Joined: 30 Jul 2007
Posts: 107089
Lоcаtion: Киев (Kyiv, UA)
Age: 45
Name: Andrey
Ага, лосей везде валом теперь http://www.google.com/search?q=Bloodgoo ... utf-8&aq=t :bore:

Но, ссылку позже все ж обновлю и у нас.

Хотя, явно на обменниках попросила удалить сама группа, так как ни одной живой ссылки не нашёл :crazy:

Разве что на торренте еще есть http://rutracker.org/forum/viewtopic.php?t=3158973

_________________


Top
 Profile E-mail  
 
 
PostPosted: 06 Jul 2011 
Хиппей (support team)
User avatar
Joined: 30 Jul 2007
Posts: 107089
Lоcаtion: Киев (Kyiv, UA)
Age: 45
Name: Andrey
mirror: iFolder l Narod l M-Cloud


log
Exact Audio Copy V0.99 prebeta 5 from 4. May 2009

Отчёт EAC об извлечении, выполненном 15. сентября 2010, 18:47

Bloodgood / All Stand Together

Дисковод: PIONEER DVD-RW DVR-215D Adapter: 3 ID: 0

Режим чтения : Достоверность
Использование точного потока : Да
Отключение кэша аудио : Да
Использование указателей C2 : Нет

Коррекция смещения при чтении : 48
Способность читать области Lead-in и Lead-out : Нет
Заполнение пропущенных сэмплов тишиной : Да
Удаление блоков с тишиной в начале и конце : Нет
При вычислениях CRC использовались нулевые сэмплы : Да
Интерфейс : Встроенный Win32-интерфейс для Win NT/2000

Выходной формат : Внутренние WAV-операции
Формат сэмплов : 44.100 Гц; 16 бит; стерео


TOC извлечённого CD

Трек | Старт | Длительность | Начальный сектор | Конечный сектор
---------------------------------------------------------------------
1 | 0:00.00 | 3:54.05 | 0 | 17554
2 | 3:54.05 | 4:19.10 | 17555 | 36989
3 | 8:13.15 | 4:28.45 | 36990 | 57134
4 | 12:41.60 | 3:40.55 | 57135 | 73689
5 | 16:22.40 | 3:41.10 | 73690 | 90274
6 | 20:03.50 | 4:14.30 | 90275 | 109354
7 | 24:18.05 | 3:48.45 | 109355 | 126499
8 | 28:06.50 | 4:21.30 | 126500 | 146104
9 | 32:28.05 | 4:09.60 | 146105 | 164839
10 | 36:37.65 | 4:52.20 | 164840 | 186759
11 | 41:30.10 | 3:54.05 | 186760 | 204314
12 | 45:24.15 | 4:36.05 | 204315 | 225019


Характеристики диапазона извлечения и сообщения об ошибках

Выбранный диапазон

Имя файла E:\обработать\Bloodgood - All Stand Together.wav

Пиковый уровень 100.0 %
Качество диапазона 100.0 %
CRC копии D66799F5
Копирование... OK

Ошибок не произошло


AccurateRip: сводка

Трек 1 нет в базе данных
Трек 2 нет в базе данных
Трек 3 нет в базе данных
Трек 4 нет в базе данных
Трек 5 нет в базе данных
Трек 6 нет в базе данных
Трек 7 нет в базе данных
Трек 8 нет в базе данных
Трек 9 нет в базе данных
Трек 10 нет в базе данных
Трек 11 нет в базе данных
Трек 12 нет в базе данных

Ни одного трека нет в базе AccurateRip

Конец отчёта


cue
REM GENRE Rock
REM DATE 1991
REM DISCID B40BB80C
REM COMMENT "ExactAudioCopy v0.99pb5"
PERFORMER "Bloodgood"
TITLE "All Stand Together"
FILE "Bloodgood - All Stand Together.ape" WAVE
TRACK 01 AUDIO
TITLE "S.O.S."
PERFORMER "Bloodgood"
FLAGS DCP
INDEX 01 00:00:00
TRACK 02 AUDIO
TITLE "All Stand Together"
PERFORMER "Bloodgood"
FLAGS DCP
INDEX 01 03:54:05
TRACK 03 AUDIO
TITLE "Escape from the Fire"
PERFORMER "Bloodgood"
FLAGS DCP
INDEX 01 08:13:15
TRACK 04 AUDIO
TITLE "Out of Love"
PERFORMER "Bloodgood"
FLAGS DCP
INDEX 01 12:41:60
TRACK 05 AUDIO
TITLE "Say Goodbye"
PERFORMER "Bloodgood"
FLAGS DCP
INDEX 01 16:22:40
TRACK 06 AUDIO
TITLE "Kingdom Come"
PERFORMER "Bloodgood"
FLAGS DCP
INDEX 01 20:03:50
TRACK 07 AUDIO
TITLE "Fear no Evil"
PERFORMER "Bloodgood"
FLAGS DCP
INDEX 01 24:18:05
TRACK 08 AUDIO
TITLE "Help Me"
PERFORMER "Bloodgood"
FLAGS DCP
INDEX 01 28:06:50
TRACK 09 AUDIO
TITLE "Rounded are the Rocks"
PERFORMER "Bloodgood"
FLAGS DCP
INDEX 01 32:28:05
TRACK 10 AUDIO
TITLE "Lies in the Dark"
PERFORMER "Bloodgood"
FLAGS DCP
INDEX 01 36:37:65
TRACK 11 AUDIO
TITLE "Streetlight Dancer"
PERFORMER "Bloodgood"
FLAGS DCP
INDEX 01 41:30:10
TRACK 12 AUDIO
TITLE "I Want to Live in Your Heart"
PERFORMER "Bloodgood"
FLAGS DCP
INDEX 01 45:24:15

_________________


Top
 Profile E-mail  
 
 
PostPosted: 17 Nov 2011 
хард н хэвщик (support team)
User avatar
Joined: 02 Jun 2008
Posts: 16880
Lоcаtion: Н.Новгород
Age: 31
Name: Артем
spiralarch wrote:
и обложки добавил инетовские.

Облоги, отсканированные моим другом: Bloodgood [1991] All Stand Together ARTWORK.rar


Top
 Profile  
 
 
PostPosted: 17 Nov 2011 
Хиппей (support team)
User avatar
Joined: 30 Jul 2007
Posts: 107089
Lоcаtion: Киев (Kyiv, UA)
Age: 45
Name: Andrey
McKagan wrote:
Облоги

:thanx:

mirror: iFolder l M-Cloud

_________________


Top
 Profile E-mail  
 
Display posts from previous:  Sort by  
Post new topic Reply to topic  [ 17 posts ] 

All times are UTC + 3 hours


Who is online

Users browsing this forum: No registered users and 1 guest


You cannot post new topics in this forum
You cannot reply to topics in this forum
You cannot edit your posts in this forum
You cannot delete your posts in this forum
You cannot post attachments in this forum

Search for:
Яндекс.Метрика
Powered by phpBB © 2000, 2002, 2005, 2007 phpBB Group