\m/ 80's metal \m/

Информационно-аналитический форум "80 см пыли" (In Search We Trust) "У нас никто никуда не спешит"
Me For You - http://me-4u.com
It is currently 19 Oct 2018

All times are UTC + 3 hours

Spoiler
Chat - temporary registration for foreign users (please leave your application here)







Post new topic Reply to topic  [ 6 posts ] 
Author Message
 
PostPosted: 26 Feb 2010 
metallpaparazzy
User avatar
Joined: 20 Dec 2009
Posts: 674
Lоcаtion: Днепропетровск
Age: 43
Name: Геннадий
Image

BALLISTIC - Ballistic Full-length, Metal Blade Records September 22nd, 2003
Speed/Thrash Metal, USA (Washington, District of Columbia)
Line-up :
Tom Gattis - Vocals/Guitar
Peter Petev - Guitar
Tim O'Connor - Bass
Rikard Stjernquist - Drums
Lead vocals on The Dissection / Into the Sever Chamber by Dave Brokie (Gwar).

1. Collision Course
2. Corpse Stacked High
3. Watch Me Do It
4. Call to Armageddon
5. The Dissection/Into the Sever Chamber
6. Call Me Evil
7. Silent Killer
8. Threshold of Pain
9. Undefeated
10. Gone Ballistic
11. Bloodbath!

cue
REM GENRE "Thrash Metal"
REM DATE 2003
REM DISCID 850B2A0B
REM COMMENT "ExactAudioCopy v0.95b4"
PERFORMER "BALLISTIC "
TITLE "Ballistic"
FILE "BALLISTIC - Ballistic.wav" WAVE
TRACK 01 AUDIO
TITLE "Collision Course"
PERFORMER "BALLISTIC "
INDEX 01 00:00:00
TRACK 02 AUDIO
TITLE "Corpse Stacked High"
PERFORMER "BALLISTIC "
INDEX 01 03:36:25
TRACK 03 AUDIO
TITLE "Watch Me Do It"
PERFORMER "BALLISTIC "
INDEX 00 06:52:39
INDEX 01 06:53:50
TRACK 04 AUDIO
TITLE "Call to Armageddon"
PERFORMER "BALLISTIC "
INDEX 00 11:38:40
INDEX 01 11:40:18
TRACK 05 AUDIO
TITLE "The Dissection/Into the Sever Chamber"
PERFORMER "BALLISTIC "
INDEX 00 15:31:12
INDEX 01 15:31:18
TRACK 06 AUDIO
TITLE "Call Me Evil"
PERFORMER "BALLISTIC "
INDEX 00 19:44:45
INDEX 01 19:48:41
TRACK 07 AUDIO
TITLE "Silent Killer"
PERFORMER "BALLISTIC "
INDEX 00 23:40:65
INDEX 01 23:42:16
TRACK 08 AUDIO
TITLE "Threshold of Pain"
PERFORMER "BALLISTIC "
INDEX 01 27:45:29
TRACK 09 AUDIO
TITLE "Undefeated"
PERFORMER "BALLISTIC "
INDEX 00 31:58:37
INDEX 01 31:58:54
TRACK 10 AUDIO
TITLE "Gone Ballistic"
PERFORMER "BALLISTIC "
INDEX 00 37:59:35
INDEX 01 38:01:10
TRACK 11 AUDIO
TITLE "Bloodbath!"
PERFORMER "BALLISTIC "
INDEX 00 42:42:09
INDEX 01 42:42:44


log
Отчёт EAC об извлечении, выполненном 24. февраля 2010, 23:40 для диска:
BALLISTIC / Ballistic

Дисковод: Optiarc DVD RW AD-7170S Adapter: 1 ID: 1
Режим чтения: Достоверный (C2: нет, Точный поток: да, Отключение кэша: да)
Коррекция смещения при чтении: 48
Способность читать области Lead-in и Lead-out : Нет

Выходной формат: Внутренние WAV-операции
44.100 Гц; 16 бит; стерео

Другие параметры:
Заполнение пропущенных сэмплов тишиной : Да
Удаление блоков с тишиной в начале и конце : Нет
Установленный внешний ASPI-интерфейс


Характеристики диапазона извлечения и сообщения об ошибках
Выбранный диапазон
Имя файла C:\Documents and Settings\Admin\Рабочий стол\ЛОСИНАЯ ФЕРМА\BALLISTIC\BALLISTIC - Ballistic.wav

Пиковый уровень 97.7 %
Качество диапазона 100.0 %
CRC 82F9E579
Копирование... OK

Ошибок не произошло

Конец отчёта


http://www.multiupload.com/JH25YPT1Q1 [FLAC]

http://www.multiupload.com/HNW1GK538W [320]

Ниче так, нормально валят чувачки :true: Войс чем-то мне напомнил Блэйза Бэйли...
Рип мой, с фирмы. полный комплект картинок :meloman:


Top
 Profile E-mail  
 
 
PostPosted: 26 Feb 2010 
Работнечег
User avatar
Joined: 28 Aug 2007
Posts: 5468
Lоcаtion: г. Москва
Age: 29
Name: Дима
Спасибо, хороший альбом!Call Me Evil классная песенка!


Top
 Profile E-mail  
 
 
PostPosted: 26 Feb 2010 
А может смените мне статус?..
User avatar
Joined: 24 Dec 2008
Posts: 618
Age: 44
Name: Дмитрий
Спасибо! :dance:


Top
 Profile  
 
 
PostPosted: 27 Feb 2010 
Хиппей (support team)
User avatar
Joined: 30 Jul 2007
Posts: 107026
Lоcаtion: Киев (Kyiv, UA)
Age: 45
Name: Andrey
Спасибо! :thanx:

_________________


Top
 Profile E-mail  
 
 
PostPosted: 27 Mar 2010 
Хиппей (support team)
User avatar
Joined: 30 Jul 2007
Posts: 107026
Lоcаtion: Киев (Kyiv, UA)
Age: 45
Name: Andrey
metallroll wrote:
Войс чем-то мне напомнил Блэйза Бэйли...

Угу, манерой читать-выкрикивать лирику :oops:
Альбом понравился... на половину, почему-то :shok: Скорее всего настраивался услышать спидо-трэш, а тут павер. Хоть и интересный, местами прогрессивный.
зы. Трэк "Threshold of Pain" явно дань Пристам :dance:

_________________


Top
 Profile E-mail  
 
 
PostPosted: 29 Mar 2010 
Хиппей (support team)
User avatar
Joined: 30 Jul 2007
Posts: 107026
Lоcаtion: Киев (Kyiv, UA)
Age: 45
Name: Andrey
И еще два раза переслушал. Чёт меня смутило все ж на альбоме поначалу.
Щас понял - отстутсвие чувства меры и оригинальности. В смысле, музыка-то однооборазная, старается выделиться лишь вокалист.
Помимо Блэйза-Дикинсона он еще косит нехило под Элсфорта.

3 балла :fingal:

_________________


Top
 Profile E-mail  
 
Display posts from previous:  Sort by  
Post new topic Reply to topic  [ 6 posts ] 

All times are UTC + 3 hours


Who is online

Users browsing this forum: No registered users and 2 guests


You cannot post new topics in this forum
You cannot reply to topics in this forum
You cannot edit your posts in this forum
You cannot delete your posts in this forum
You cannot post attachments in this forum

Search for:
Яндекс.Метрика
Powered by phpBB © 2000, 2002, 2005, 2007 phpBB Group