\m/ 80's metal \m/

Информационно-аналитический форум "80 см пыли" (In Search We Trust) "У нас никто никуда не спешит"
Me For You - http://me-4u.com
It is currently 12 Dec 2018

All times are UTC + 3 hours

Spoiler
Chat - temporary registration for foreign users (please leave your application here)







Post new topic Reply to topic  [ 183 posts ]  Go to page Previous  1, 2, 3, 4, 5, 6 ... 10  Next
Author Message
 
PostPosted: 09 Oct 2015 
5-speed satisfactor
User avatar
Joined: 16 Feb 2009
Posts: 3633
Lоcаtion: New York, USA
Age: 40
Name: Leonid
Я имел ввиду мои оцифровки РЕГОй... Kill Or Be Killed вроде как бы более не менее нормально звучит. А вот на Destined For Extinction заметное отсутствие тарелок на левом канале... Дай знать, когда качнешь....

_________________
Death rules! Metal to all who oppose!


Top
 Profile  
 
 
PostPosted: 09 Oct 2015 
Рарник и трушник
User avatar
Joined: 25 Dec 2009
Posts: 8477
Lоcаtion: Москва
Age: 53
Name: Виталий
Ну, понял, ОК.


Top
 Profile  
 
 
PostPosted: 11 Oct 2015 
Хиппей (support team)
User avatar
Joined: 30 Jul 2007
Posts: 108837
Lоcаtion: Киев (Kyiv, UA)
Age: 45
Name: Andrey
:thanx:

Лёнь, а ты мне какой ща на имэйл сбросил? :vic:

_________________


Top
 Profile E-mail  
 
 
PostPosted: 12 Oct 2015 
Хиппей (support team)
User avatar
Joined: 30 Jul 2007
Posts: 108837
Lоcаtion: Киев (Kyiv, UA)
Age: 45
Name: Andrey
Blessed Death - Hour Of Pain [flacs].zip

Image

    1. Fallen Walls - 06:38
    2. Your Are Nothing - 05:10
    3. Shadows of the Living 04:49
    4. Hour of Pain - 03:28
    5. Black Snow Sky - 04:49
    6. Resurrection Earth - 03:49
    7. Atomic Fear - 03:06
    8. Global Confusion - 03:03
    9. Terminal Rage - 02:07
    10. Born Dead - 02:58
    11. Out of the Void - 03:54

    TPT: 43:51



mirror: iFolder l Narod l M-Cloud

log
Exact Audio Copy V0.99 prebeta 5 from 4. May 2009

EAC extraction logfile from 6. October 2013, 23:40

Blessed Death / Hour Of Pain

Used drive : PLEXTOR DVDR PX-760A Adapter: 1 ID: 0

Read mode : Secure
Utilize accurate stream : Yes
Defeat audio cache : Yes
Make use of C2 pointers : Yes

Read offset correction : 30
Overread into Lead-In and Lead-Out : Yes
Fill up missing offset samples with silence : Yes
Delete leading and trailing silent blocks : No
Null samples used in CRC calculations : Yes
Used interface : Installed external ASPI interface

Used output format : Internal WAV Routines
Sample format : 44.100 Hz; 16 Bit; Stereo


TOC of the extracted CD

Track | Start | Length | Start sector | End sector
---------------------------------------------------------
1 | 0:00.00 | 6:36.61 | 0 | 29760
2 | 6:36.61 | 5:10.33 | 29761 | 53043
3 | 11:47.19 | 4:49.72 | 53044 | 74790
4 | 16:37.16 | 3:28.65 | 74791 | 90455
5 | 20:06.06 | 4:49.42 | 90456 | 112172
6 | 24:55.48 | 3:49.70 | 112173 | 129417
7 | 28:45.43 | 3:06.37 | 129418 | 143404
8 | 31:52.05 | 3:03.22 | 143405 | 157151
9 | 34:55.27 | 2:07.62 | 157152 | 166738
10 | 37:03.14 | 2:58.51 | 166739 | 180139
11 | 40:01.65 | 3:54.02 | 180140 | 197691


Range status and errors

Selected range

Filename P:\FLAC\Blessed Death\Hour Of Pain\Blessed Death - Hour Of Pain.wav

Peak level 100.0 %
Range quality 99.9 %
Copy CRC 2614D623
Copy OK

No errors occurred

End of status report

------------------------------------------------------------

Exact Audio Copy V0.99 prebeta 5 from 4. May 2009

EAC extraction logfile from 6. October 2013, 23:54

Blessed Death / Hour Of Pain

Used drive : PLEXTOR DVDR PX-760A Adapter: 1 ID: 0

Read mode : Secure
Utilize accurate stream : Yes
Defeat audio cache : Yes
Make use of C2 pointers : Yes

Read offset correction : 11202
Overread into Lead-In and Lead-Out : Yes
Fill up missing offset samples with silence : Yes
Delete leading and trailing silent blocks : No
Null samples used in CRC calculations : Yes
Used interface : Installed external ASPI interface
Gap handling : Appended to next track

Used output format : Internal WAV Routines
Sample format : 44.100 Hz; 16 Bit; Stereo


TOC of the extracted CD

Track | Start | Length | Start sector | End sector
---------------------------------------------------------
1 | 0:00.00 | 6:36.61 | 0 | 29760
2 | 6:36.61 | 5:10.33 | 29761 | 53043
3 | 11:47.19 | 4:49.72 | 53044 | 74790
4 | 16:37.16 | 3:28.65 | 74791 | 90455
5 | 20:06.06 | 4:49.42 | 90456 | 112172
6 | 24:55.48 | 3:49.70 | 112173 | 129417
7 | 28:45.43 | 3:06.37 | 129418 | 143404
8 | 31:52.05 | 3:03.22 | 143405 | 157151
9 | 34:55.27 | 2:07.62 | 157152 | 166738
10 | 37:03.14 | 2:58.51 | 166739 | 180139
11 | 40:01.65 | 3:54.02 | 180140 | 197691


Track 11

Filename P:\FLAC\Blessed Death\Hour Of Pain\11. Out Of The Void.wav

Peak level 100.0 %
Track quality 100.0 %
Copy CRC 8BDCE390
Copy OK

No errors occurred

End of status report

cue
REM GENRE "Thrash Metal"
REM DATE 1991
REM DISCID A70A4B0B
REM COMMENT "ExactAudioCopy v0.99pb5"
PERFORMER "Blessed Death"
TITLE "Hour Of Pain"
FILE "Blessed Death - Hour Of Pain.wav" WAVE
TRACK 01 AUDIO
TITLE "Fallen Walls"
PERFORMER "Blessed Death"
FLAGS DCP
INDEX 01 00:00:00
TRACK 02 AUDIO
TITLE "You Are Nothing"
PERFORMER "Blessed Death"
FLAGS DCP
INDEX 01 06:36:61
TRACK 03 AUDIO
TITLE "Shadows Of The Living"
PERFORMER "Blessed Death"
FLAGS DCP
INDEX 01 11:47:19
TRACK 04 AUDIO
TITLE "Hour Of Pain"
PERFORMER "Blessed Death"
FLAGS DCP
INDEX 01 16:37:16
TRACK 05 AUDIO
TITLE "Black Snow Sky"
PERFORMER "Blessed Death"
FLAGS DCP
INDEX 01 20:06:06
TRACK 06 AUDIO
TITLE "Ressurection Earth"
PERFORMER "Blessed Death"
FLAGS DCP
INDEX 01 24:55:48
TRACK 07 AUDIO
TITLE "Atomic Fear"
PERFORMER "Blessed Death"
FLAGS DCP
INDEX 01 28:45:43
TRACK 08 AUDIO
TITLE "Global Confusion"
PERFORMER "Blessed Death"
FLAGS DCP
INDEX 01 31:52:05
TRACK 09 AUDIO
TITLE "Terminal Rage"
PERFORMER "Blessed Death"
FLAGS DCP
INDEX 01 34:55:27
TRACK 10 AUDIO
TITLE "Born Dead"
PERFORMER "Blessed Death"
FLAGS DCP
INDEX 01 37:03:14
TRACK 11 AUDIO
TITLE "Out Of The Void"
PERFORMER "Blessed Death"
FLAGS DCP
INDEX 01 40:01:65

_________________


Top
 Profile E-mail  
 
 
PostPosted: 12 Oct 2015 
Рарник и трушник
User avatar
Joined: 25 Dec 2009
Posts: 8477
Lоcаtion: Москва
Age: 53
Name: Виталий
Спасибо!!! :thanx:


Top
 Profile  
 
 
PostPosted: 13 Oct 2015 
Рарник и трушник
User avatar
Joined: 25 Dec 2009
Posts: 8477
Lоcаtion: Москва
Age: 53
Name: Виталий
metaleonid wrote:
А вот на Destined For Extinction заметное отсутствие тарелок на левом канале...

Да, есть такое. Это бывает обычно из-за иглы или антискейтинга и прижимной силы. Но ничего, слушается отлично. :thanx:


Top
 Profile  
 
 
PostPosted: 13 Oct 2015 
5-speed satisfactor
User avatar
Joined: 16 Feb 2009
Posts: 3633
Lоcаtion: New York, USA
Age: 40
Name: Leonid
metaleonid wrote:
А вот на Destined For Extinction заметное отсутствие тарелок на левом канале...

Да, есть такое. Это бывает обычно из-за иглы или антискейтинга и прижимной силы. Но ничего, слушается отлично. :thanx:


Виталий,

Не так всё плохо:

http://rutracker.org/forum/viewtopic.php?t=3942646

Оцифровка от Ревичи. И как я понял это с кассеты. Только почему в начале первой песни треск и щелчки? :vic: :vic: :vic: Может это кассета, записанная с винила? Короче послухай у него... Мне кажется, что у меня лучше и намного. Можно ведь трошки эквалайзером тарелочки на первом канале поднять....

А если нет, то:

Было б очень зашибато
Очифирить их Шибатой!

_________________
Death rules! Metal to all who oppose!


Last edited by metaleonid on 14 Oct 2015, edited 3 times in total.

Top
 Profile  
 
 
PostPosted: 14 Oct 2015 
Хиппей (support team)
User avatar
Joined: 30 Jul 2007
Posts: 108837
Lоcаtion: Киев (Kyiv, UA)
Age: 45
Name: Andrey
Scatterbrain wrote:
Blessed Death - Hour Of Pain


Эх, какой шибатый альбом-то :meloman: :true: :lob: :kz:

_________________


Top
 Profile E-mail  
 
 
PostPosted: 14 Oct 2015 
Рарник и трушник
User avatar
Joined: 25 Dec 2009
Posts: 8477
Lоcаtion: Москва
Age: 53
Name: Виталий
metaleonid wrote:
Оцифровка от Ревичи. И как я понял это с кассеты. Только почему в начале первой песни треск и щелчки? Может это кассета, записанная с винила? Короче послухай у него... Мне кажется, что у меня лучше и намного. Можно ведь трошки эквалайзером тарелочки на первом канале поднять....

Тут, понимаешь какое дело - Ревичи психоакустик, судя по его перлам. А запись винила на кассету и последующая оцифровка на том-же аппарате - это способ "собрать звучок в кучу" и поиграться с высокими. А на оцифровке звучок будет более рельефным и собранным. Только прозрачность чуть потеряется, добавиться грязи и тяжести чуть-чуть, но это не все услышат.
Я послушал его рип, да, твой лучше. И не надо эквалайзером влезать, полюбасу звучок поменяешь. Ну это имхо.
metaleonid wrote:
Было б очень зашибато
Очифирить их Шибатой!

:nunu: :nunu: :nunu: :benya: :benya: :benya: :true: :true: :true:
Да ты поэт! :benya:


Top
 Profile  
 
 
PostPosted: 14 Oct 2015 
Хиппей (support team)
User avatar
Joined: 30 Jul 2007
Posts: 108837
Lоcаtion: Киев (Kyiv, UA)
Age: 45
Name: Andrey
Не, ну какой же всё шибатейший шаібатительный альбом у ребят случился тогда :kz: :kz: :kz: :kz: :kz:

Как я его до сих пор не слушал? Ну дык, не всё коту мордой в маслом падать :pardon:

9+/10


Не скажу, что помесь Anthrax, Testament, иногда Slayer & Metallica, но скажу, что они уделали все эти группы вместе, чуть ли не изобретя свой уникальный стиль на этом релизе.
А вокалист так вообще умничка и трудяга :meloman: Таких певцов в трэше почти не бывает.

_________________


Top
 Profile E-mail  
 
 
PostPosted: 14 Oct 2015 
Хиппей (support team)
User avatar
Joined: 30 Jul 2007
Posts: 108837
Lоcаtion: Киев (Kyiv, UA)
Age: 45
Name: Andrey
Ага, так вот оно как, Михалыч:
Quote:
Дополнительные замечания

Записано в 1991 году в Pyramid Sound Studios, Итака, штат Нью-Йорк, но остался неизданный пока группа не предложила его через CDBaby в 2006 году.

http://www.metal-archives.com/albums/Bl ... tabs_notes

Так шо явно не один я лось пропустил его. Срочно качать и наслаждаться :dance:

_________________


Top
 Profile E-mail  
 
 
PostPosted: 14 Oct 2015 
консэрваторъ
Joined: 11 Aug 2007
Posts: 16313
Lоcаtion: Псков
Age: 44
Name: Сергей
Scatterbrain wrote:
9+/10

:shok: Это очень много... поставить в планы что ли... О!.. А у меня уже и поставлен... после Риска... :oops:

_________________
THRASH 'EM ALL


Top
 Profile E-mail  
 
 
PostPosted: 14 Oct 2015 
Хиппей (support team)
User avatar
Joined: 30 Jul 2007
Posts: 108837
Lоcаtion: Киев (Kyiv, UA)
Age: 45
Name: Andrey
Scatterbrain wrote:
9+/10

:shok: Это очень много... поставить в планы что ли... О!.. А у меня уже и поставлен... после Риска... :oops:

Даже спорить не буду, что альбом тебе понравится.
А вот первый... ээмм... и самый известный - сумлеваюсь :vic:

_________________


Top
 Profile E-mail  
 
 
PostPosted: 14 Oct 2015 
Хиппей (support team)
User avatar
Joined: 30 Jul 2007
Posts: 108837
Lоcаtion: Киев (Kyiv, UA)
Age: 45
Name: Andrey
BLESSED DEATH [1985] Kill or Be Killed [by Quickshot]

Image

Image

mirror: iFolder l Narod l M-Cloud

Так вот, это переиздание от пшеков "Metal Mind Prods." имеет, помимо кривизны самого качества, ещё и такой вот артефакт:

Песенка "Pig Slaughter" - отметка с 02:03 по 02:07 - вот это циц-цик-цик и повторы фразы так и должны присутсвовать? :lloo:

Image Image

Image Image Image

log
EAC extraction logfile from 22. December 2007, 15:26 for CD
Blessed Death / Kill or Be Killed

Used drive : PLEXTOR DVDR PX-755A Adapter: 1 ID: 1
Read mode : Secure with NO C2, accurate stream, disable cache
Read offset correction : 30
Overread into Lead-In and Lead-Out : Yes

Other options :
Fill up missing offset samples with silence : Yes
Delete leading and trailing silent blocks : No
Installed external ASPI interface


Range status and errors
Selected range
Filename D:\Temp\Blessed Death 1985 Kill or Be Killed\CDImage.flac.wav

Peak level 98.8 %
Range quality 100.0 %
CRC 0604E1CC
Copy OK

No errors occured

End of status report

cue
PERFORMER "Blessed Death"
TITLE "Kill or Be Killed"
FILE "CDImage.flac" WAVE
TRACK 01 AUDIO
TITLE "Melt Down"
PERFORMER "Blessed Death"
INDEX 01 00:00:00
TRACK 02 AUDIO
TITLE "Pig Slaughter"
PERFORMER "Blessed Death"
INDEX 01 03:43:02
TRACK 03 AUDIO
TITLE "Omen of Fate"
PERFORMER "Blessed Death"
INDEX 01 06:39:09
TRACK 04 AUDIO
TITLE "Into The Ovens"
PERFORMER "Blessed Death"
INDEX 01 11:54:46
TRACK 05 AUDIO
TITLE "Knights of Old Bridge"
PERFORMER "Blessed Death"
INDEX 01 15:29:05
TRACK 06 AUDIO
TITLE "Eternal War"
PERFORMER "Blessed Death"
INDEX 01 22:11:61
TRACK 07 AUDIO
TITLE "Blessed Death"
PERFORMER "Blessed Death"
INDEX 01 26:17:50
TRACK 08 AUDIO
TITLE "Napalm"
PERFORMER "Blessed Death"
INDEX 01 33:44:17
TRACK 09 AUDIO
TITLE "Kill or Be Killed"
PERFORMER "Blessed Death"
INDEX 01 37:40:66

_________________


Top
 Profile E-mail  
 
 
PostPosted: 14 Oct 2015 
5-speed satisfactor
User avatar
Joined: 16 Feb 2009
Posts: 3633
Lоcаtion: New York, USA
Age: 40
Name: Leonid
Пошли они на :str: эти поляки, долбофаки грёбанные.....

Есть моя оцифровка. Наслаждайтесь ей. Лучшей пока, увы, не существует.

_________________
Death rules! Metal to all who oppose!


Top
 Profile  
 
 
PostPosted: 14 Oct 2015 
Хиппей (support team)
User avatar
Joined: 30 Jul 2007
Posts: 108837
Lоcаtion: Киев (Kyiv, UA)
Age: 45
Name: Andrey
Да понятно. Но я твою ещё не слушал, ибо знаю, шо так шЫк, блеск и красота. А про косяк от поляков занятно узнать.

_________________


Top
 Profile E-mail  
 
 
PostPosted: 14 Oct 2015 
Анатолий
User avatar
Joined: 18 Oct 2008
Posts: 3243
Lоcаtion: Армавир
Age: 41
Name: Анатолий
splatty wrote:
Это очень много... поставить в планы что ли... О!.. А у меня уже и поставлен... после Риска...


Будь осторожен... что-то Андрiя куда-то сильно унесло...


Top
 Profile E-mail  
 
 
PostPosted: 15 Oct 2015 
5-speed satisfactor
User avatar
Joined: 16 Feb 2009
Posts: 3633
Lоcаtion: New York, USA
Age: 40
Name: Leonid
Да понятно. Но я твою ещё не слушал, ибо знаю, шо так шЫк, блеск и красота. А про косяк от поляков занятно узнать.


Не такая моя уж и шик/блеск. Есть свои косяки. Но в данный момент лучшей пока нет. Если достану винильчики, Виталию.

_________________
Death rules! Metal to all who oppose!


Top
 Profile  
 
 
PostPosted: 15 Oct 2015 
Хиппей (support team)
User avatar
Joined: 30 Jul 2007
Posts: 108837
Lоcаtion: Киев (Kyiv, UA)
Age: 45
Name: Andrey
Толя, тебе группа не понравилась?

_________________


Top
 Profile E-mail  
 
 
PostPosted: 15 Oct 2015 
Анатолий
User avatar
Joined: 18 Oct 2008
Posts: 3243
Lоcаtion: Армавир
Age: 41
Name: Анатолий
Группа весьма на любителя, по моему мнению конечно же. Последний, тот что неизданный, альбом не много уходит в сторону от предыдущего творчества но кардинально картины не меняет. Есть конечно не плохие задумки и решения... но в целом уровень средний.


Top
 Profile E-mail  
 
Display posts from previous:  Sort by  
Post new topic Reply to topic  [ 183 posts ]  Go to page Previous  1, 2, 3, 4, 5, 6 ... 10  Next

All times are UTC + 3 hours


Who is online

Users browsing this forum: No registered users and 4 guests


You cannot post new topics in this forum
You cannot reply to topics in this forum
You cannot edit your posts in this forum
You cannot delete your posts in this forum
You cannot post attachments in this forum

Search for:
Яндекс.Метрика
Powered by phpBB © 2000, 2002, 2005, 2007 phpBB Group